<?xml version="1.0" standalone="no"?>
<!DOCTYPE svg PUBLIC "-//W3C//DTD SVG 1.1//EN" "http://www.w3.org/Graphics/SVG/1.1/DTD/svg11.dtd" >
<svg xmlns="http://www.w3.org/2000/svg">
<metadata>
This is a custom SVG webfont generated by Font Squirrel.
Copyright   : Converted by Andrey V Panov from TeX fonts
</metadata>
<defs>
<font id="webfontcz7EYQja" horiz-adv-x="1024" >
<font-face units-per-em="2048" ascent="1638" descent="-410" />
<missing-glyph horiz-adv-x="681" />
<glyph unicode=" "  horiz-adv-x="681" />
<glyph unicode="&#x09;" horiz-adv-x="681" />
<glyph unicode="&#xa0;" horiz-adv-x="681" />
<glyph unicode="!" horiz-adv-x="569" d="M174 1331q0 55 34 84t75 29q43 0 75.5 -30t32.5 -81q0 -10 -2 -16l-45 -866q-2 -43 -9 -52.5t-30 -9.5h-33h-16q-6 0 -12 2l-10 3q-3 1 -6 5t-4 6.5t-2 8.5t-1 9t-1 11t-1 15l-43 845q0 6 -1 18.5t-1 18.5zM174 109q0 47 33 77.5t76 30.5t74.5 -30.5t31.5 -77.5 q0 -45 -32.5 -76t-73.5 -31q-43 0 -76 31t-33 76z" />
<glyph unicode="&#x22;" d="M256 1348q0 47 26.5 67.5t57.5 20.5t56.5 -20.5t25.5 -69.5q0 -20 -10.5 -246t-12.5 -309h-120q0 8 -11.5 277.5t-11.5 279.5zM600 1346q0 51 26.5 70.5t55.5 19.5t55.5 -20.5t26.5 -67.5q0 -16 -10.5 -280.5t-12.5 -276.5h-118q-2 84 -12.5 309.5t-10.5 245.5z" />
<glyph unicode="#" horiz-adv-x="1705" d="M115 301q0 59 78 59h331l80 304h-409q-80 0 -80 59q0 61 84 61h436l149 564l2 12q4 10 8.5 18l11.5 19.5t19.5 17.5t26.5 6q25 0 41 -17.5t16 -41.5q0 -14 -24 -108l-65 -241l-60 -229h327l150 564l4 12q2 10 6 18t11.5 19.5t19.5 17.5t27 6q25 0 41 -17.5t16 -41.5 q0 -14 -25 -109l-64 -238q-40 -144 -61 -231h291q86 0 86 -61q0 -57 -76 -59h-333l-80 -304h409q80 0 80 -59q0 -61 -84 -61h-438l-149 -564q-14 -74 -66 -73q-25 0 -41 17.5t-16 41.5q0 14 26 119l66 250l55 209h-328l-149 -564q-14 -74 -66 -73q-25 0 -41 17.5t-16 41.5 q0 14 27 117l67 253l56 208h-293q-84 0 -84 61zM647 360h330l78 304h-328z" />
<glyph unicode="$" d="M113 383q0 53 26.5 72.5t57.5 19.5q33 0 56 -22.5t23 -57.5t-36 -71q20 -92 71 -141.5t140 -69.5v563q-61 14 -111 33q-94 45 -160.5 134t-66.5 214q0 154 92 255t246 118v106h120v-104q106 -14 179 -60.5t104 -108t42 -107.5t11 -89q0 -51 -26.5 -71.5t-55.5 -20.5 q-31 0 -56.5 23.5t-25.5 58.5q0 33 37 69q-37 152 -209 183v-504q84 -25 105 -35q98 -45 165.5 -144.5t67.5 -230.5q0 -47 -10 -96t-41 -117.5t-104.5 -121t-182.5 -68.5v-105h-120v105q-166 20 -252 132t-86 259zM246 1075q0 -80 49 -145.5t156 -95.5v475q-68 -14 -113 -46 t-63.5 -72t-23.5 -65.5t-5 -50.5zM571 115q104 23 154.5 95.5t50.5 166.5q0 86 -48 160.5t-157 107.5v-530z" />
<glyph unicode="%" horiz-adv-x="1705" d="M113 1120q0 117 28.5 203t73.5 129t92 63.5t94 20.5q51 0 85 -14.5t80 -50t81 -54.5q158 -90 320 -90q225 0 354 160q4 4 9 11l8 11q3 4 8.5 8.5t8.5 7.5t7 5t8 3t10 1q35 0 41 -47q23 -16 23 -29q0 -16 -33 -53t-68 -66q-43 -37 -65 -69l-905 -1342q-23 -39 -49 -39 q-37 0 -37 39q0 18 16 41l854 1270q-88 -25 -180 -25q-145 0 -311 66q16 -82 16 -158q0 -215 -87 -313t-194 -98q-109 0 -197.5 97t-90.5 312zM246 1118q0 -170 53 -235q45 -51 102 -52q61 0 113.5 70t52.5 223q0 145 -49 218t-119 73q-92 0 -133 -115q-20 -57 -20 -182z M1022 297q0 217 89 315.5t198 98.5q106 0 194 -97.5t88 -314.5t-87 -314.5t-193 -97.5q-109 0 -199 97.5t-90 312.5zM1155 293q0 -170 53 -236q43 -49 103 -49q63 0 114.5 68.5t51.5 222.5q0 143 -49.5 217t-116.5 74q-94 0 -135 -113q-21 -59 -21 -184z" />
<glyph unicode="&#x26;" horiz-adv-x="1599" d="M84 309q0 53 14.5 97.5t51 89.5t64.5 72.5t92 82.5l97 84q-70 178 -69 355q0 156 81 255t199 99q109 0 173.5 -92t64.5 -209q0 -178 -291 -428q16 -37 40 -78t49.5 -80l50.5 -74l52 -67l42 -55l32 -42l17 -18l49 69l44 66l35 54q11 17 39 67l37 67l48 91l55 104h-205v119 h541v-119h-213q-201 -401 -356 -594q147 -127 270 -127q72 0 120 45t54 119h115q-4 -127 -87 -206t-202 -79q-186 0 -359 154h-2q-168 -154 -370 -154q-154 0 -263.5 95.5t-109.5 236.5zM240 328q0 -92 71.5 -161t180.5 -69q135 0 260 107v2q-180 201 -297 411l-62 -54 l-56 -50q-13 -12 -39 -40t-34 -45t-16 -44.5t-8 -56.5zM459 1124q0 -125 53 -293q225 193 225 314q0 55 -29.5 116.5t-93.5 61.5q-57 0 -106 -50.5t-49 -148.5z" />
<glyph unicode="'" horiz-adv-x="569" d="M201 1343q0 53 26.5 73t55.5 20q33 0 58.5 -20.5t25.5 -69.5q0 -23 -10.5 -262.5t-12.5 -292.5h-121q-2 57 -12 291t-10 261z" />
<glyph unicode="(" horiz-adv-x="796" d="M166 512q0 328 97 581t274 412q33 31 67 31h31q41 0 41 -18q0 -8 -25.5 -35l-66.5 -74t-86 -113.5t-89 -178t-71 -245.5q-35 -166 -35 -356q0 -211 38 -389t93 -283.5t110.5 -179.5t93.5 -111.5t38 -46.5q0 -18 -51 -18h-23q-23 0 -42 11.5t-68 64.5q-47 49 -92.5 113.5 t-103.5 179t-94 285.5t-36 370z" />
<glyph unicode=")" horiz-adv-x="796" d="M119 -494q0 8 38 46t93 113t109.5 180.5t92 281.5t37.5 383q0 209 -37.5 386t-92 283.5t-109.5 180.5t-93 111.5t-38 44.5q0 14 12 17t57 3q25 0 43.5 -11.5t63.5 -56.5q332 -342 332 -956q0 -178 -32 -339t-73 -262t-100.5 -192.5t-93 -129.5t-72.5 -72q-33 -29 -68 -29 h-30q-39 0 -39 18z" />
<glyph unicode="*" d="M133 868q0 29 18.5 44.5t77.5 48.5q12 6 19 10q125 74 164 94v2l-60 35l-124 70q-65 38 -74 47q-20 25 -21 47q0 27 19.5 46t42.5 19q8 0 14 -1t15 -6l19 -10q9 -5 29 -20l42 -29l62 -44l83 -58q-12 250 -13 287q0 84 64 84q20 0 41.5 -16.5t21.5 -53.5q0 -10 -2 -69.5 t-5 -132t-3 -99.5l79 54q38 27 58.5 43l41 30.5t30.5 20.5l21 12q10 6 17 7t15 1q25 0 44.5 -19.5t19.5 -45.5q0 -6 -1 -12.5t-2 -10.5t-5 -9l-8 -9q-3 -4 -10 -9.5t-12 -8.5t-15.5 -10t-17.5 -10t-20 -11l-24 -15l-166 -94v-2q2 0 62 -34l124 -70q65 -37 72 -46 q23 -23 23 -47q0 -27 -19.5 -46t-44.5 -19q-8 0 -14 1t-15.5 6t-18.5 11l-28 20l-41 28l-62 44l-83 58q10 -276 10 -287q0 -84 -63 -84q-20 0 -42 16.5t-22 53.5q0 92 13 301l-82 -57l-61 -43l-42 -29l-30 -21l-20 -11q-9 -5 -15 -6t-14 -1q-25 0 -43.5 19t-18.5 46z" />
<glyph unicode="+" horiz-adv-x="1593" d="M115 512q0 61 78 61h542v533q0 86 60 86q61 0 61 -84v-535h535q84 0 84 -61q0 -45 -41 -55q-14 -4 -41 -4h-537v-535q0 -29 -4 -43q-14 -43 -57 -43q-59 0 -60 86v535h-536q-29 0 -41 4q-43 10 -43 55z" />
<glyph unicode="," horiz-adv-x="569" d="M174 109q0 45 31 75.5t78 30.5q72 0 101.5 -67.5t29.5 -159.5q0 -90 -32 -182.5t-69 -144.5t-57 -52q-14 0 -43 27.5t-29 44.5q0 8 28 45.5t54.5 109.5t26.5 164q-47 2 -76 23.5t-36 42t-7 43.5z" />
<glyph unicode="-" horiz-adv-x="681" d="M20 399v140h545v-140h-545z" />
<glyph unicode="." horiz-adv-x="569" d="M174 109q0 41 32 73.5t77 32.5t76.5 -31.5t31.5 -74.5t-31.5 -76t-76.5 -33q-47 0 -78 33t-31 76z" />
<glyph unicode="/" d="M115 -451q0 16 20 74l647 1850q25 61 66 61q25 0 42 -16.5t17 -42.5q0 -6 -16 -62l-647 -1843q-8 -27 -15.5 -41t-21.5 -26.5t-35 -12.5q-23 0 -40 17t-17 42z" />
<glyph unicode="0" d="M86 659v29q0 279 70 428q31 63 67 107q100 113 266 118h21q109 0 197 -47q121 -72 178 -229q49 -141 49 -406v-38q-4 -291 -78 -437q-29 -55 -63 -94q-98 -102 -263 -113h-20q-190 0 -297 132q-45 53 -78 143q-49 137 -49 407zM240 672q2 -113 4 -170.5t21.5 -157.5 t56.5 -151q72 -94 188 -95q55 0 99 21.5t72 52.5t48.5 84t29.5 97t14 113t6 108.5t1 105.5q0 104 -2 164.5t-20.5 146.5t-52.5 135q-70 96 -195 97q-63 0 -111.5 -22.5t-77 -68t-46 -90.5t-24.5 -116.5t-9 -117.5t-2 -120v-16z" />
<glyph unicode="1" d="M197 1090v120q96 2 164.5 22.5t95 45.5t52.5 44t48 19q33 0 41 -14t8 -49v-1157h256v-121h-655v121h256v1042q-112 -69 -266 -73z" />
<glyph unicode="2" d="M102 0v76q0 27 13.5 45t97.5 98l76 74l129 123l119 112q39 37 91 95.5t75.5 99.5t42 95t18.5 110q0 141 -105.5 218t-230.5 77q-143 0 -197 -181q45 -31 45 -73q0 -37 -26.5 -62.5t-61.5 -25.5q-33 0 -59.5 22.5t-26.5 77.5t25 116.5t71 117t121.5 91t167.5 35.5 q186 0 310.5 -115.5t124.5 -293.5q0 -55 -17.5 -109.5t-36 -91.5t-66.5 -90t-74 -77.5l-94 -85.5l-93 -83l-265 -248h279l207 5l22 94l17 102h121l-58 -348h-762z" />
<glyph unicode="3" d="M84 301q0 51 28.5 72.5t59.5 21.5q35 0 61.5 -24.5t26.5 -63.5q0 -41 -39 -74q37 -68 115 -104.5t174 -36.5q133 0 199.5 77t66.5 204q0 119 -57 190.5t-162 85.5q-25 4 -76 4h-90q-23 0 -32 2t-14 11.5t-5 31.5q0 57 8 68q8 8 36 10t68 4t66 8q90 20 149.5 96.5 t59.5 166.5q0 88 -56.5 135t-160.5 47q-152 0 -229 -90q31 -31 30.5 -68t-25 -60.5t-61.5 -23.5q-35 0 -59.5 24.5t-24.5 65.5q0 104 102.5 182t270.5 78t266.5 -78.5t98.5 -211.5q0 -209 -213 -338q125 -33 197.5 -124t72.5 -220q0 -160 -109.5 -276t-312.5 -116 q-182 0 -306 94.5t-124 229.5z" />
<glyph unicode="4" d="M55 356v88q0 35 23 68l493 772q31 49 44.5 55.5t80.5 6.5q29 0 42.5 -10.5t13.5 -43.5v-817h213v-119h-213v-235h198v-121h-538v121h198v235h-555zM197 475h424v717q-18 -57 -110 -210l-195 -314q-103 -162 -119 -193z" />
<glyph unicode="5" d="M102 299q0 47 28 68.5t56 21.5q37 0 60.5 -25.5t23.5 -58.5q0 -39 -34 -69q31 -63 96 -103.5t151 -40.5q125 0 204 76t79 246q0 80 -17.5 143.5t-70.5 111.5t-139 48h-2q-143 0 -230 -103q-27 -35 -65 -34q-31 0 -45.5 8t-16.5 19t-2 36v643q0 51 23 51q8 0 48 -15 t109.5 -30.5t151.5 -15.5t151.5 15.5t109.5 30.5t50 15q20 0 21 -43v-30q0 -14 -2 -21.5t-11.5 -16.5t-29.5 -18q-174 -72 -342 -71q-80 0 -158 18v-395q117 78 240 78q172 0 276.5 -118t104.5 -310q0 -201 -124 -317t-313 -116q-164 0 -272.5 97.5t-108.5 224.5z" />
<glyph unicode="6" d="M92 649q0 158 35 282t90 198.5t128 125t140.5 68.5t137.5 18q139 0 201.5 -64.5t62.5 -141.5q0 -47 -26.5 -67.5t-57.5 -20.5q-33 0 -57.5 22.5t-24.5 56.5q0 31 27 64q-55 43 -123 43q-61 0 -121 -23.5t-118 -76t-96 -156t-40 -246.5q135 160 342 160q182 0 282 -182 q57 -109 58 -273q0 -180 -82 -293q-121 -166 -332 -166q-279 0 -379 299q-47 140 -47 373zM258 479q0 -96 19.5 -177t81 -145.5t159.5 -64.5q123 0 191 84q43 55 54 112.5t11 160.5v24q0 78 -19.5 140.5t-76.5 109.5t-150 47q-121 0 -195.5 -87t-74.5 -204z" />
<glyph unicode="7" d="M113 973l67 413h121v-28l12 -35l115 -2h565v-57q0 -33 -4 -44.5t-31 -45.5q-240 -332 -245 -343q-72 -109 -113 -249t-49 -244.5t-11 -196.5t-8 -104q-16 -57 -79 -57q-31 0 -54.5 20t-25.5 51q-2 10 -2 35q2 100 15 192.5t26.5 160t48.5 149.5l53 125q18 43 70.5 124 t72 108.5l85 114.5t81.5 111h-436l-115 -4q-8 -23 -39 -194h-120z" />
<glyph unicode="8" d="M84 334q0 240 278 383q-2 2 -23.5 14t-27.5 17.5t-27.5 19.5t-30.5 24l-28 26q-18 17 -27 32l-22 35q-12 20 -18 40.5t-11.5 46t-5.5 52.5q0 143 100.5 230t268.5 87q170 0 269.5 -83.5t99.5 -221.5q0 -68 -22.5 -124t-65.5 -96t-71 -58.5t-71 -42.5q4 -2 41 -24.5 t54.5 -35l52 -39t54 -51t42 -59.5t33 -76t10.5 -86q0 -166 -115.5 -266.5t-310.5 -100.5q-197 0 -311.5 97.5t-114.5 259.5zM221 336q0 -119 82 -181.5t207 -62.5q133 0 210 62.5t77 167.5q0 119 -131 198l-52 34l-42 28l-31 20l-25 15l-17.5 10.5t-14.5 6.5t-11 1 q-51 0 -151.5 -86t-100.5 -213zM266 1051q0 -35 8.5 -58.5t44 -55.5t54.5 -44l92 -59l35 -23q31 -18 41 -18q43 0 128 69.5t85 171.5q0 96 -70 147.5t-174 51.5q-102 0 -173 -45t-71 -137z" />
<glyph unicode="9" d="M92 883q0 178 74 282q123 176 350 176q205 0 309 -167q106 -166 107 -500q0 -197 -49 -340.5t-129 -217t-162 -106.5t-168 -33q-154 0 -220.5 64.5t-66.5 142.5q0 47 26.5 68.5t57.5 21.5q33 0 56.5 -23.5t23.5 -57.5q0 -27 -22 -60q57 -41 143 -41q125 0 207 80 t111.5 185.5t31.5 232.5q-131 -160 -340 -160q-178 0 -280 176q-60 107 -60 277zM248 848q0 -123 56 -210t190 -87q125 0 198.5 89t73.5 206q0 158 -58.5 272.5t-191.5 114.5q-129 0 -201 -86q-43 -53 -55 -110.5t-12 -147.5v-41z" />
<glyph unicode=":" horiz-adv-x="569" d="M174 109q0 41 32 73.5t77 32.5t76.5 -31.5t31.5 -74.5t-31.5 -76t-76.5 -33q-47 0 -78 33t-31 76zM174 829q0 41 32 74t77 33t76.5 -32t31.5 -75t-31.5 -75.5t-76.5 -32.5q-47 0 -78 32.5t-31 75.5z" />
<glyph unicode=";" horiz-adv-x="569" d="M174 829q0 41 32 74t77 33t76.5 -32t31.5 -75t-31.5 -75.5t-76.5 -32.5q-47 0 -78 32.5t-31 75.5zM174 109q0 45 31 75.5t78 30.5q72 0 101.5 -67.5t29.5 -159.5q0 -90 -32 -182.5t-69 -144.5t-57 -52q-14 0 -43 27.5t-29 44.5q0 8 28 45.5t54.5 109.5t26.5 164 q-47 2 -76 23.5t-36 42t-7 43.5z" />
<glyph unicode="&#x3c;" horiz-adv-x="1593" d="M172 512q0 8 2 15.5t6 12.5l9 11q5 6 9.5 10t12.5 8t11 6.5t11 6.5l7 2l1044 542q59 31 78 31q25 0 41 -17.5t16 -41.5q0 -8 -2 -15.5t-5 -12.5t-9 -11t-10 -9t-13 -9l-11 -7q-3 -2 -11 -6t-10 -4l-836 -434l-76 -39l-76 -39l81 -41l71 -37l836 -434q72 -33 71 -74 q0 -25 -16.5 -42t-40.5 -17q-18 0 -78 31l-1044 542q-2 0 -7.5 3t-8.5 4.5t-9 5.5t-10 7t-10.5 7t-9.5 9l-6 10q-3 5 -5 12.5t-2 13.5z" />
<glyph unicode="=" horiz-adv-x="1593" d="M115 301q0 59 75 59h1209q76 0 76 -61q0 -59 -80 -59h-1205q-75 0 -75 61zM115 723q0 61 82 61h1198q80 0 80 -61q0 -59 -78 -59h-1204q-78 0 -78 59z" />
<glyph unicode="&#x3e;" horiz-adv-x="1593" d="M172 -74q0 41 72 74l835 434q18 10 71 37l81 41l-81 41l-71 37l-835 434q-72 33 -72 74q0 25 16.5 42t40.5 17q18 0 78 -31l1045 -542q2 0 7 -3t8 -4.5t9 -5.5l10.5 -7l10.5 -7t9 -9l6 -10q3 -5 5 -12.5t2 -13.5q0 -8 -2 -15.5t-6 -12.5l-9 -11q-5 -6 -9 -10t-12.5 -8 t-11.5 -6l-9 -7l-8 -2l-1080 -561q-29 -12 -43 -12q-25 0 -41 17t-16 42z" />
<glyph unicode="?" horiz-adv-x="966" d="M113 1139q0 104 92 199.5t256 95.5q119 0 201.5 -29t120.5 -79t53.5 -96t15.5 -100q0 -104 -57 -178q-10 -14 -62.5 -60t-96.5 -91t-82 -127t-40 -172v-72q0 -27 -8 -34t-41 -7h-27q-31 0 -38 9.5t-7 35.5v23q0 100 10 149q37 219 203 363l19 16q18 16 22 20.5l17.5 20.5 t17.5 28.5t9 34t5 46.5q0 98 -58 139t-171 41q-156 0 -219 -117q29 -33 28 -65q0 -37 -23.5 -59.5t-55.5 -22.5q-31 0 -57.5 20.5t-26.5 67.5zM346 109q0 47 33 77.5t76 30.5t74.5 -30.5t31.5 -77.5q0 -45 -32.5 -76t-73.5 -31q-43 0 -76 31t-33 76z" />
<glyph unicode="@" horiz-adv-x="1593" d="M113 713q0 326 187 523.5t495 197.5q305 0 493.5 -197t188.5 -530q0 -193 -61.5 -323t-190.5 -130q-104 0 -146 119q-119 -119 -284 -119q-170 0 -290 117.5t-120 341.5q0 209 114.5 331.5t293.5 122.5q215 0 323 -166q14 -23 24.5 -28.5t26 -6.5t23.5 -3q14 -6 14 -35 v-457q0 -94 53 -94q106 0 107 278q0 8 -1 21.5t-1 17.5q0 141 -37 253t-95.5 178.5t-136 110.5t-150.5 60.5t-148 16.5q-256 0 -412 -163t-156 -439q0 -270 154 -436t424 -166q147 0 272 22.5t201 45t104 22.5h43q57 0 43 -27q-4 -6 -30 -22q-295 -160 -633 -160 q-328 0 -510 200.5t-182 522.5zM522 713q0 -150 72 -244t203 -94q113 0 192.5 76.5t79.5 195.5v125q0 123 -82 200t-190 77q-125 0 -200 -91t-75 -245z" />
<glyph unicode="A" horiz-adv-x="1513" d="M70 0v121h174l422 1227q12 35 18 46t21.5 20t44.5 9h14q31 0 46 -8t28 -43q383 -1094 430 -1251h174v-121h-481v121h151l-111 317h-522l-108 -317h149v-121h-450zM522 559h439l-220 635z" />
<glyph unicode="B" horiz-adv-x="1439" d="M102 0v121h183v1159h-183v119h689q141 0 241.5 -36t147.5 -94.5t66.5 -112.5t19.5 -109q0 -229 -289 -316q152 -20 249 -113.5t97 -238.5q0 -45 -9 -90t-52 -112.5t-117 -110.5q-117 -66 -314 -66h-729zM428 121h363q209 0 292.5 80t83.5 184q0 47 -15 92t-51 90 t-108.5 73t-175.5 28h-389v-547zM428 788h305l8 -2h11q166 0 265 71t99 187q0 92 -71.5 164t-256.5 72h-360v-492z" />
<glyph unicode="C" horiz-adv-x="1478" d="M113 698q0 342 196.5 532.5t487.5 190.5q242 0 417 -186q86 170 99 178q6 6 20 6h4q16 2 21.5 -11t5.5 -32v-452q0 -31 -11.5 -38t-60.5 -7q-45 0 -51 32q-25 162 -126 275.5t-267 113.5q-102 0 -195.5 -28.5t-182.5 -91t-143.5 -187.5t-54.5 -295q0 -172 55.5 -295.5 t146.5 -186t184.5 -90.5t195.5 -28q162 0 268.5 102.5t118.5 241.5q4 37 12.5 45.5t40.5 8.5h25q45 0 45 -37q0 -102 -60.5 -210t-194.5 -190t-310 -82q-307 0 -496.5 197.5t-189.5 523.5z" />
<glyph unicode="D" horiz-adv-x="1552" d="M100 0v121h183v1159h-183v119h672q154 0 273.5 -45t191.5 -116t119 -167t64.5 -189.5t17.5 -195.5q0 -45 -4 -92t-22.5 -125t-50.5 -144.5t-95.5 -137t-149.5 -115.5q-133 -72 -346 -72h-670zM430 121h315q537 0 537 567q0 119 -24.5 217.5t-81 186.5t-167 138t-264.5 50 h-315v-1159z" />
<glyph unicode="E" horiz-adv-x="1382" d="M98 0v121h183v1153h-183v119h1112l58 -519h-121q-29 262 -47 330q-10 33 -33 46.5t-91.5 18.5t-238.5 5h-303v-490h158q164 0 192.5 10.5t32.5 65.5v10q4 43 4 134v20h119v-600h-119v20q0 88 -4 134q-4 59 -25.5 72.5t-117.5 13.5h-240v-543h328q174 0 248.5 7t94 20.5 t30.5 50.5q29 92 69 385h121l-86 -584h-1141z" />
<glyph unicode="F" horiz-adv-x="1325" d="M98 0v121h183v1153h-183v119h1084l55 -519h-119q-16 152 -25.5 219.5t-23.5 109.5t-25.5 48t-39.5 11h-3q-66 12 -278 12h-289v-516h191q127 0 152.5 11t27.5 73q4 45 4 133v20h119v-598h-119v23q0 88 -4 131q-4 59 -24.5 72.5t-112.5 13.5h-234v-516h228v-121h-564z" />
<glyph unicode="G" horiz-adv-x="1601" d="M113 698q0 340 195.5 531.5t488.5 191.5q242 0 417 -186q86 170 99 178q6 6 20 6h4q16 2 21.5 -11t5.5 -32v-452q0 -31 -10.5 -38t-50.5 -7q-27 0 -38.5 2t-17.5 11t-7 21.5t-7 42t-16 62.5q-41 106 -130.5 194t-234.5 88q-80 0 -155.5 -15t-154.5 -58t-137.5 -108.5 t-95.5 -174t-37 -248.5q0 -283 156 -440.5t436 -157.5q264 0 326 99q18 29 18 92v188h-256v119h553v-119h-141v-438q0 -33 -16 -33q-29 0 -88 92q-143 -121 -449 -121q-326 0 -512 201t-186 520z" />
<glyph unicode="H" horiz-adv-x="1513" d="M98 0v121h183v1159h-183v119h520v-119h-182v-492h641v492h-182v119h518v-119h-182v-1159h182v-121h-518v121h182v547h-641v-547h182v-121h-520z" />
<glyph unicode="I" horiz-adv-x="716" d="M90 0v121h191v1159h-191v119h537v-119h-191v-1159h191v-121h-537z" />
<glyph unicode="J" horiz-adv-x="1040" d="M135 227q0 45 26.5 68.5t63.5 23.5q33 0 59.5 -24.5t26.5 -61.5q0 -35 -30 -69q74 -66 174 -66q51 0 90 17.5t57.5 46t26.5 47t12 37.5q6 33 6 71v963h-237v119h522v-119h-137v-967q0 -96 -32 -164.5t-85 -104.5t-107.5 -51.5t-111.5 -15.5q-137 0 -230.5 74t-93.5 176z " />
<glyph unicode="K" horiz-adv-x="1570" d="M102 0v121h183v1159h-183v119h512v-119h-182v-662l674 662h-115v119h463v-119h-151q-14 0 -26.5 -4t-19 -8t-18.5 -17l-18 -18l-180 -177q-177 -175 -226 -220l483 -686q25 -29 50 -29h137v-121h-438v121h112l-438 620q-279 -274 -283 -280q0 -2 -2 -6q-4 -8 -4 -41v-293 h182v-121h-512z" />
<glyph unicode="L" horiz-adv-x="1267" d="M98 0v121h183v1159h-183v119h564v-119h-228v-1159h262q139 0 206 10t84.5 24.5t25.5 49.5q18 76 49 379h121l-58 -584h-1026z" />
<glyph unicode="M" horiz-adv-x="1855" d="M111 0v121h182v1159h-182v119h311q33 0 47 -10.5t29 -42.5l428 -1176q6 18 20.5 57t20.5 60l387 1059q12 33 27.5 43t48.5 10h311v-119h-182v-1159h182v-121h-494v121h183v983l-3 145q-6 -20 -22 -63t-23 -64l-391 -1069q-10 -31 -24.5 -41t-44.5 -12q-41 0 -54.5 12.5 t-31.5 61.5l-424 1159v-1112h182v-121h-483z" />
<glyph unicode="N" horiz-adv-x="1513" d="M102 0v121h183v1159h-183v119h277q43 0 67 -39l662 -1073v993h-182v119h485v-119h-182v-1214q0 -23 -1 -33t-13.5 -21.5t-38.5 -11.5h-13q-29 0 -40 8t-27 33l-690 1122v-1042h182v-121h-486z" />
<glyph unicode="O" horiz-adv-x="1593" d="M113 692q0 334 187 531.5t497 197.5q307 0 493.5 -197.5t186.5 -527.5q0 -334 -189.5 -526.5t-494.5 -192.5q-307 0 -493.5 195.5t-186.5 519.5zM272 725q0 -176 49.5 -303t132.5 -192.5t167 -94.5t174 -29q72 0 139 16.5t139 60.5t124 110.5t86 178.5t34 253 q0 129 -33 231.5t-85 165t-122.5 103.5t-139.5 56t-140 15q-94 0 -179.5 -27.5t-167 -88t-130 -178t-48.5 -277.5z" />
<glyph unicode="P" horiz-adv-x="1382" d="M100 0v121h183v1159h-183v119h674q231 0 362.5 -114t131.5 -296q0 -53 -12.5 -104t-47 -108.5t-89 -99.5t-147.5 -69.5t-214 -27.5h-322v-459h182v-121h-518zM430 700h272q180 0 263 41q141 70 141 250q0 164 -121 236q-88 53 -278 53h-277v-580z" />
<glyph unicode="Q" horiz-adv-x="1593" d="M113 694q0 332 187 529.5t495 197.5q297 0 489.5 -192.5t192.5 -532.5q0 -92 -17.5 -181t-60.5 -187.5t-132 -180t-214 -127.5q0 -4 8 -34l11 -42q3 -11 14.5 -41t19.5 -44.5t22.5 -36t30 -32.5t38 -19.5t46.5 -8.5q68 0 120 56.5t62 152.5q0 57 33 58q12 0 21.5 -12.5 t9.5 -32.5q0 -55 -12.5 -114.5t-38 -123t-78.5 -103.5t-125 -40q-43 0 -78 12t-59.5 40t-42 52.5t-31.5 70.5t-20.5 71.5t-16.5 79t-14 69.5q-88 -20 -178 -21q-303 0 -492.5 193.5t-189.5 523.5zM266 692q0 -426 328 -555v21q0 82 62.5 132t140.5 50q156 0 219 -195 q305 133 307 543q0 143 -36 254t-90 176.5t-127 107.5t-139.5 56t-135.5 14q-74 0 -144.5 -17t-142.5 -60t-124 -110t-85 -174.5t-33 -242.5zM715 160q0 -20 20.5 -39t65.5 -19q53 0 135 17q-47 100 -137 100q-37 0 -60.5 -17t-23.5 -42z" />
<glyph unicode="R" horiz-adv-x="1497" d="M100 0v121h183v1159h-183v119h572q133 0 235.5 -25.5t162.5 -64.5t99 -91.5t53.5 -100.5t14.5 -97q0 -104 -61.5 -191.5t-184.5 -140.5q33 -20 59.5 -42.5t44 -41t29.5 -47.5l19 -44q6 -15 10 -53t5 -52.5t2 -62.5t1 -64q6 -123 64 -162q31 -20 59 -21q68 0 82 80l5 22.5 t7 14.5t17.5 12t29.5 2q16 0 23.5 -1t19 -4t15.5 -12t4 -26q0 -68 -50.5 -138.5t-148.5 -70.5q-117 0 -202 69t-85 235v129q0 66 -20 102q-72 127 -305 127h-246v-518h182v-121h-512zM430 760h232q293 0 378 129q37 57 37 131q0 147 -135 213q-94 47 -283 47h-229v-520z" />
<glyph unicode="S" horiz-adv-x="1138" d="M113 18v406q0 25 7 33t34 8h28q39 0 47 -16l4 -52q6 -51 35 -111.5t86 -105.5q102 -82 262 -82q143 0 206 81t63 179q0 166 -146 240q-37 18 -193.5 55t-203.5 58q-96 41 -162.5 131t-66.5 209q0 166 109.5 268t287.5 102q203 0 338 -147q55 131 65 141q8 6 23 6 q29 0 29 -43v-405q0 -27 -9.5 -33t-31.5 -6h-19q-47 0 -57 14q-2 2 -8 34t-14.5 70t-32 84t-57.5 82.5t-92 62.5t-134 26q-117 0 -187.5 -65.5t-70.5 -170.5q0 -57 27.5 -106.5t54 -71t53.5 -33.5q37 -18 199 -57t205 -58q100 -47 165.5 -144t65.5 -226q0 -172 -107.5 -285 t-296.5 -113q-236 0 -389 148q-29 -72 -44 -103.5t-22 -36.5t-20 -5q-30 -1 -30 38z" />
<glyph unicode="T" horiz-adv-x="1478" d="M72 870l41 519h1249l41 -519h-121q-25 283 -33 332q-6 29 -22.5 41t-65.5 18.5t-160 6.5h-186v-1147h256v-121h-668v121h256v1147h-186q-111 0 -160 -6.5t-65.5 -18.5t-22.5 -41q-8 -49 -32 -332h-121z" />
<glyph unicode="U" horiz-adv-x="1513" d="M98 1280v119h520v-119h-182v-788q0 -219 103 -314q86 -80 227 -80q152 0 249 90.5t97 300.5v791h-184v119h485v-119h-182v-782q0 -121 -31 -216.5t-78 -150.5t-111.5 -91t-124 -49.5t-122.5 -13.5q-84 0 -162 24t-153.5 78t-121.5 160.5t-46 254.5v786h-183z" />
<glyph unicode="V" horiz-adv-x="1513" d="M41 1280v119h473v-119h-145l401 -1083l404 1083h-148v119h444v-119h-167l-463 -1243q-14 -33 -28.5 -43t-49.5 -10h-14q-39 0 -53.5 13t-32.5 64l-453 1219h-168z" />
<glyph unicode="W" horiz-adv-x="2082" d="M39 1280v119h455v-119h-154q293 -967 324 -1075l32 117l271 895l10 40v23h-154v119h455v-119h-154l265 -872l57 -203l43 149l280 926h-172v119h445v-119h-154l-379 -1243q-12 -35 -26.5 -44t-48.5 -9h-9q-37 0 -49 13t-26 58l-287 936q-10 37 -35 115q-16 -88 -88 -344 l-158 -537q-61 -203 -71 -219q-16 -23 -60 -22h-10q-12 0 -22.5 2t-17.5 7t-12 9t-9.5 13.5t-5.5 14.5t-5 17l-6 19l-370 1214h-154z" />
<glyph unicode="X" horiz-adv-x="1513" d="M55 0v121h197l410 610l-349 496q-25 37 -34 44t-33 9h-160v119h479v-119h-112l292 -422h3l282 422h-121v119h461v-119h-164q-23 -2 -32 -9t-33 -42l-320 -477l443 -631h192v-121h-481v121h112l-352 504l-340 -504h121v-121h-461z" />
<glyph unicode="Y" horiz-adv-x="1513" d="M31 1280v119h483v-119h-119l377 -588l377 588h-119v119h451v-119h-189l-440 -686q-23 -37 -23 -74v-399h183v-121h-512v121h182v383q0 53 -23 90l-440 686h-188z" />
<glyph unicode="Z" horiz-adv-x="1251" d="M113 61v16q0 7 3 14l5 12q2 5 9 16.5t12 18.5l19 26l23 33l748 1083h-273q-182 0 -250.5 -10t-93 -38t-34.5 -104q-8 -59 -19 -247h-121l23 518h915q33 0 45.5 -10.5t12.5 -45.5q0 -10 -2 -19t-4.5 -16.5t-9.5 -19.5t-12 -19l-19 -28l-25 -35l-748 -1081h256h176 q56 0 113.5 9t74.5 13.5t35.5 32t20.5 44.5l8 71q10 78 25 309h121l-35 -604h-938q-37 0 -49 11t-12 50z" />
<glyph unicode="[" horiz-adv-x="569" d="M213 -512v2048h309v-121h-172v-1806h172v-121h-309z" />
<glyph unicode="\" d="M115 1475q0 25 16 42t43 17q8 0 16.5 -3t13.5 -6t11 -9.5t9 -11.5t6 -13t5.5 -12t5.5 -12.5t3 -10.5l651 -1857q12 -33 12 -52q0 -23 -17.5 -40t-41.5 -17q-10 0 -18.5 3t-15.5 9t-12 11.5t-9.5 16.5l-6.5 16l-7 19q-5 13 -5 15l-641 1825q-18 52 -18 70z" />
<glyph unicode="]" horiz-adv-x="569" d="M43 -391h172v1806h-172v121h309v-2048h-309v121z" />
<glyph unicode="^" horiz-adv-x="1251" d="M225 1065l400 235l399 -235l-61 -104l-338 204l-338 -204z" />
<glyph unicode="_" horiz-adv-x="1593" d="M172 -498q0 41 61 41h1123q61 0 61 -41q0 -37 -57 -41h-1129q-59 0 -59 41z" />
<glyph unicode="`" d="M211 1292q0 27 20.5 50.5t49.5 23.5q6 0 10 -1t9 -2t12 -5l15 -9l20 -16l28 -21l38 -31l49 -39l63 -50l79 -64l-72 -94q-106 66 -253 176q-39 27 -53.5 42t-14.5 40z" />
<glyph unicode="a" horiz-adv-x="1001" d="M92 266q0 111 82 186.5t207 107.5t285 32v47q0 94 -52.5 145.5t-179.5 51.5q-47 0 -115 -7q2 -51 -23.5 -73.5t-57.5 -22.5q-39 0 -60.5 24.5t-21.5 59.5q0 137 288 137q96 0 172 -23.5t134.5 -97t58.5 -192.5v-448q0 -45 41 -60q37 -12 76 -12q27 0 38 -2t20 -16.5 t9 -45.5q0 -35 -12 -46t-47 -11h-37q-82 0 -131 22.5t-60.5 41t-19.5 45.5q-141 -121 -362 -121q-113 0 -172.5 87t-59.5 191zM236 270q0 -72 56 -116.5t136 -44.5q100 0 180 61q57 45 58 141v176q-244 -8 -337 -71.5t-93 -145.5z" />
<glyph unicode="b" horiz-adv-x="1148" d="M49 1274v119l307 30v-585q156 111 367 110q168 0 258 -133t90 -342q0 -231 -110.5 -357t-278.5 -126q-184 0 -332 133l-10 -123h-121v1217q0 41 -22.5 49t-108.5 8h-39zM362 326q0 -59 71 -138t183 -79q49 0 93.5 13t94.5 47t80.5 110.5t30.5 187.5q0 362 -280 362 q-100 0 -186.5 -54t-86.5 -136v-313z" />
<glyph unicode="c" horiz-adv-x="909" d="M76 467q0 86 20.5 165t68.5 154.5t142 121.5t223 46q55 0 93.5 -3t92.5 -14t83.5 -42t29.5 -78q0 -37 -22.5 -60.5t-58.5 -23.5q-80 0 -84 90q-53 6 -127 6q-307 0 -308 -354q0 -104 32 -179t85 -112t105.5 -53t107.5 -16q113 0 168 131q8 23 19.5 28t46 5t45 -5.5 t10.5 -19.5q0 -16 -17.5 -54t-51.5 -87.5t-105.5 -86t-163.5 -36.5q-195 0 -314.5 131t-119.5 346z" />
<glyph unicode="d" horiz-adv-x="1148" d="M76 467q0 217 99 350t276 133q180 0 337 -108v377q0 37 -23.5 46t-121.5 9h-25v119l308 30v-1243q0 -41 20.5 -50t106.5 -9h45v-121l-316 -10v129q-158 -129 -344 -129q-164 0 -263 129t-99 348zM229 467q0 -109 27 -185.5t73 -111.5t89 -48t92 -13q111 0 191.5 75.5 t80.5 157.5v283q0 2 1 7t1 9q0 76 -77.5 132t-176.5 56q-53 0 -99 -14t-95 -49t-78 -111.5t-29 -187.5z" />
<glyph unicode="e" horiz-adv-x="909" d="M63 477q0 215 116 346t304 131q104 0 180 -37.5t115 -101t55.5 -131.5t16.5 -141q0 -33 -14.5 -42t-40.5 -9h-578q0 -109 29.5 -186t81 -116.5t108 -57t121.5 -17.5q121 0 168 135q12 27 22.5 35t40.5 8h3q57 0 57 -35q0 -78 -101.5 -173t-240.5 -95q-76 0 -148.5 24.5 t-141.5 77.5t-111 152.5t-42 232.5zM229 604h498q-33 231 -242 232q-29 0 -58.5 -6.5t-71.5 -27t-76 -71.5t-50 -127z" />
<glyph unicode="f" horiz-adv-x="626" d="M55 0v121h170v698h-159v119h159v162q0 100 40 170.5t104.5 103.5t121 46.5t109.5 13.5q59 0 85 -42t26 -83q0 -43 -26 -63.5t-54.5 -20.5t-54 19.5t-25.5 68.5q-113 0 -153 -58.5t-40 -156.5v-160h240v-119h-236v-698h216v-121h-523z" />
<glyph unicode="g" d="M55 -133q0 150 131 219q-49 78 -49 150q0 86 53 161q-61 98 -61 213q0 154 89 247t235 93q109 0 200 -61q100 72 209 72q66 0 97.5 -34t31.5 -69q0 -31 -21.5 -51.5t-47.5 -20.5q-51 0 -70 54l-64 -9l-65 -16q55 -100 55 -203q0 -152 -90 -245t-235 -93q-100 0 -191 54 q-18 -45 -18 -72q0 -41 23.5 -73.5t64.5 -37.5q14 -2 43 -2h149q80 0 137.5 -6t122 -23.5t107.5 -59.5t61 -105q12 -39 13 -82q0 -109 -106.5 -193t-344.5 -84q-248 0 -353.5 85.5t-105.5 191.5zM186 -133q0 -63 77 -112.5t251 -49.5q170 0 245 49t75 111q0 49 -30 82 t-86 45t-99.5 16t-102.5 4h-154q-176 0 -176 -145zM266 614q0 -225 186.5 -225t186.5 221q0 225 -184 226q-189 -1 -189 -222z" />
<glyph unicode="h" horiz-adv-x="1148" d="M57 0v121h170v1098q0 37 -21.5 46t-109.5 9h-39v119l308 30v-516l2 -88q121 131 295 131q92 0 151 -25.5t85 -74.5t34 -93t8 -108v-528h170v-121h-483v121h170v522q0 41 -6.5 68.5t-24.5 57.5t-61 45t-109 15q-102 0 -163.5 -73.5t-61.5 -196.5v-438h170v-121h-484z" />
<glyph unicode="i" horiz-adv-x="579" d="M158 1315q0 47 32.5 77.5t75.5 30.5t75 -30.5t32 -77.5q0 -45 -33 -76t-74 -31q-43 0 -75.5 31t-32.5 76zM61 0v121h170v622q0 41 -21.5 49.5t-107.5 8.5h-32v121l299 28v-829h153v-121h-461z" />
<glyph unicode="j" horiz-adv-x="636" d="M221 1315q0 47 33 77.5t76 30.5t74.5 -30.5t31.5 -77.5q0 -45 -32.5 -76t-73.5 -31q-43 0 -76 31t-33 76zM-51 -270q0 39 25.5 61.5t58.5 22.5q35 0 57.5 -22.5t22.5 -67.5v-11q16 -2 49 -2q139 2 139 215v824q-2 35 -26.5 43t-122.5 8h-39v121l325 28v-1024 q0 -76 -21.5 -137t-55 -97t-75.5 -59.5t-79 -33t-72 -9.5q-76 0 -131 39.5t-55 100.5z" />
<glyph unicode="k" horiz-adv-x="1091" d="M53 0v121h170v1098q0 37 -21.5 46t-109.5 9h-39v119l301 30v-911l314 307h-133v119h477v-119h-148q-29 0 -48 -15.5t-84.5 -84t-145.5 -139.5v-5l313 -454h158v-121h-406v121h103l-254 371l-64 -62q-66 -63 -77 -78.5t-11 -40.5v-2v-188h170v-121h-465z" />
<glyph unicode="l" horiz-adv-x="579" d="M61 0v121h170v1098q0 37 -21.5 46t-109.5 9h-39v119l308 30v-1302h172v-121h-480z" />
<glyph unicode="m" horiz-adv-x="1718" d="M57 0v121h170v622q0 39 -22.5 48.5t-106.5 9.5h-41v121l303 28v-137q121 137 302 137q205 0 260 -147q123 147 309 147q92 0 152.5 -26.5t86 -76.5t32.5 -93t7 -105v-528h170v-121h-483v121h170v522q0 41 -5 67.5t-23.5 57.5t-61.5 46t-111 15q-102 0 -163.5 -73.5 t-61.5 -196.5v-438h170v-121h-483v121h170v522q0 41 -5.5 67.5t-23.5 57.5t-61 46t-111 15q-102 0 -163.5 -73.5t-61.5 -196.5v-438h170v-121h-484z" />
<glyph unicode="n" horiz-adv-x="1148" d="M57 0v121h170v622q0 39 -22.5 48.5t-106.5 9.5h-41v121l303 28v-137q119 137 299 137q94 0 153.5 -25.5t85.5 -75.5t34 -93t8 -107v-528h170v-121h-483v121h170v522q0 41 -6.5 68.5t-24.5 57.5t-61 45t-109 15q-102 0 -163.5 -73.5t-61.5 -196.5v-438h170v-121h-484z" />
<glyph unicode="o" d="M63 465q0 223 123 356t324 133t323.5 -133t122.5 -354t-123.5 -349t-322.5 -128q-201 0 -324 129t-123 346zM217 489q0 -375 293 -374q291 0 291 370q0 350 -291 351q-293 -1 -293 -347z" />
<glyph unicode="p" horiz-adv-x="1148" d="M49 -279h170v1027q0 35 -22.5 44t-110.5 9h-37v121l307 28v-114q162 113 375 112q164 0 252 -132t88 -343q0 -223 -106.5 -353t-282.5 -130q-178 0 -320 123v-392h170v-120h-483v120zM362 334q0 -76 74 -150.5t180 -74.5q121 0 210 91t89 269q0 150 -71.5 252t-210.5 102 q-96 0 -183.5 -53t-87.5 -133v-303z" />
<glyph unicode="q" horiz-adv-x="1091" d="M76 465q0 135 37 235.5t97 151.5t121.5 74.5t125.5 23.5q190 0 344 -139l12 139h113v-1229h172v-120h-486v120h170v412q-143 -143 -338 -143q-166 0 -267 130t-101 345zM231 469q0 -172 80 -266t199 -94q117 0 197.5 92t80.5 186v197q0 80 -72.5 159.5t-185.5 79.5 q-117 0 -208 -87t-91 -267z" />
<glyph unicode="r" horiz-adv-x="802" d="M49 0v121h170v622q0 39 -22.5 48.5t-106.5 9.5h-41v121l297 28v-143q106 141 250 141q63 0 105 -34.5t42 -84.5q-2 -37 -25.5 -58t-53.5 -21q-27 0 -52.5 18t-27.5 61q-109 -18 -168 -112q-59 -90 -60 -250v-346h215v-121h-522z" />
<glyph unicode="s" horiz-adv-x="806" d="M68 43v285q2 27 10 35t39 8q27 0 39 -1t21 -9.5t11 -13.5t8.5 -27.5t10.5 -38.5q53 -172 203 -172q111 0 153.5 47t42.5 106q0 57 -39 95t-83 50.5t-114.5 27t-99.5 24.5q-29 8 -57.5 24.5t-64 44t-58 72.5t-22.5 98q0 45 13 85t46 81t101.5 65.5t164.5 24.5 q117 0 199 -63l9 14l8 12.5t8.5 10.5t7.5 9t7 7t8 6t8 3t9 1q23 0 27 -12t4 -39v-213q0 -39 -10 -48t-55 -9q-18 0 -29.5 1t-17 8t-7.5 11t-3 20.5t-3 24.5q-31 143 -182 144q-100 0 -140 -39t-40 -88q0 -39 21.5 -65.5t59 -42t75.5 -23.5l87 -19q49 -10 76 -18 q80 -25 149.5 -94.5t69.5 -180.5q0 -49 -13 -93t-46 -89t-101.5 -72.5t-166.5 -27.5q-137 0 -236 98q-2 -6 -9 -19.5t-11 -19.5t-10.5 -17.5t-11.5 -18.5t-11 -13t-12.5 -9t-12.5 -3q-8 0 -22 10q-8 6 -8 45z" />
<glyph unicode="t" horiz-adv-x="796" d="M37 819v119q39 2 68.5 17.5t61.5 54.5t49 123t17 208h121v-403h293v-119h-293v-536q0 -109 41 -146q27 -23 60 -22q49 0 80 49q27 43 26 131v98h121v-112q0 -82 -32 -143.5t-81 -91.5t-93 -43t-81 -13q-184 0 -184 286v543h-174z" />
<glyph unicode="u" horiz-adv-x="1148" d="M57 801v121l314 28v-671q0 -96 30.5 -133t141.5 -37q96 0 175 61t79 205v360q0 47 -17.5 56.5t-105.5 9.5h-47v121l313 28v-749q0 -49 8 -62.5t49 -15.5q27 -2 82 -2h31v-121l-307 -10v133q-133 -133 -334 -133q-66 0 -113 18.5t-71.5 44t-38 67.5t-16.5 72.5t-3 75.5 v469q0 45 -20.5 54.5t-108.5 9.5h-41z" />
<glyph unicode="v" horiz-adv-x="1091" d="M41 819v119h432v-119h-137l182 -532l35 -115l31 96l188 551h-137v119h416v-119h-158l-76 -217l-190 -551q-14 -37 -28.5 -48t-47.5 -11h-8q-37 0 -52.5 12t-29.5 55l-185 535q-47 129 -77 225h-158z" />
<glyph unicode="w" horiz-adv-x="1490" d="M39 819v119h424v-119h-141q170 -569 184 -647q12 74 94 346.5t82 278.5q0 4 -1 11t-1 11h-145v119h405v-119h-141l192 -647l195 647h-160v119h424v-119h-145l-232 -758q-8 -31 -13 -42t-20.5 -19t-46.5 -8h-10q-31 0 -44 11t-24 42l-92 302q-76 249 -92 298 q-33 -219 -158 -600q-10 -31 -24 -42t-45 -11h-12q-35 0 -48.5 11t-25.5 54l-234 762h-145z" />
<glyph unicode="x" horiz-adv-x="1091" d="M29 0v121h184l256 364l-242 334h-186v119h424v-119h-98l172 -235h2l164 235h-101v119h424v-119h-154q-23 -2 -39 -18.5t-81 -110.5l-144 -203v-4l264 -362h187v-121h-424v121h98l-194 268l-189 -268h99v-121h-422z" />
<glyph unicode="y" horiz-adv-x="1091" d="M41 819v119h432v-119h-137q14 -37 107.5 -307t109.5 -340l84 256l135 391h-137v119h416v-119h-158l-315 -899q-20 -61 -36 -97t-47.5 -83t-76.5 -82q-84 -68 -185 -68q-74 0 -130 43t-56 107q0 35 22.5 57.5t55.5 22.5t56.5 -21.5t23.5 -58.5q0 -10 -4 -27q10 -2 28 -2 q115 0 183 103q18 29 43.5 100.5t25.5 85.5q0 16 -10 37l-272 782h-158z" />
<glyph unicode="z" horiz-adv-x="913" d="M55 55q0 31 5.5 42.5t33.5 47.5l522 674h-174q-115 0 -153.5 -6t-52 -23.5t-19.5 -72.5q-8 -88 -12 -185h-121l22 406h654q31 0 44 -10t13 -45q0 -12 -1 -21.5t-6 -20t-8 -14.5l-12 -16q-9 -12 -14 -16l-518 -670h160h108q33 0 69 5t45 8t21.5 21.5t14.5 31t6 49.5 q4 33 20 217h121l-35 -457h-677q-33 0 -44.5 11t-11.5 44z" />
<glyph unicode="{" d="M111 496v26q0 20 2 30.5t10 14.5t18.5 5t34 3.5t47.5 8.5q86 18 142.5 64t70.5 110q4 20 4 63v428q0 39 2 61.5t23.5 65.5t64.5 76q109 84 299 84h29q23 0 33 -1t15 -11.5t5 -15.5v-27v-23q0 -12 -2 -20t-5 -12.5t-12 -6.5t-17.5 -3t-29 -1t-36.5 -2q-133 -10 -179 -48 t-46 -105v-435q0 -135 -74 -211q-68 -74 -170 -102q78 -23 132 -63.5t75.5 -88t29 -79t7.5 -62.5v-450q0 -47 12 -70q25 -47 92.5 -67.5t136 -22.5t70.5 -4q20 -8 16 -45v-29q0 -18 -5 -27.5t-12 -11.5t-22 -4h-30q-207 0 -310 82q-92 70 -92 197v436q0 49 -6 73 q-20 78 -101 123t-175 52q-20 2 -28.5 4t-13.5 11.5t-5 29.5z" />
<glyph unicode="|" horiz-adv-x="569" d="M242 -449v1907q0 76 41 76t41 -61v-1907q0 -41 -8.5 -58.5t-32.5 -17.5q-41 0 -41 61z" />
<glyph unicode="}" d="M111 -440q0 14 2 23t5 14.5t13 7.5t17.5 3t28 1t36.5 2q78 6 128 22.5t69.5 41t24.5 43t5 49.5v450q0 211 244 295q-244 82 -244 295v448q0 49 -12 72q-25 47 -93.5 66.5t-136 21.5t-71.5 4q-16 6 -16 45v29q0 25 8 34t33 9h30q205 0 307 -82q94 -68 95 -197v-436 q0 -49 6 -71q18 -72 93 -120t185 -57q27 -2 35 -9t8 -36v-28q0 -18 -2 -27.5t-8 -14.5t-13 -6t-24 -1q-113 -8 -186.5 -59.5t-89.5 -125.5q-4 -20 -4 -63v-445q0 -100 -66.5 -164.5t-146.5 -85t-168 -20.5h-49q-27 0 -35 8t-8 39v25z" />
<glyph unicode="~" horiz-adv-x="1251" d="M170 1219q8 12 33.5 43.5l35 44t31 36t35.5 33.5t35.5 22.5t44.5 17.5t47 5q63 0 184 -51t187 -51q41 0 80 19.5t56 36t46 48.5l94 -75l-39 -51q-31 -40 -41 -51l-36 -39q-27 -28 -44.5 -37t-45 -18t-56.5 -9q-63 0 -184 51t-184 51q-92 0 -185 -102z" />
<glyph unicode="&#xa1;" horiz-adv-x="569" d="M174 -307q0 4 1 13t1 15l43 846q0 8 1 20.5t1 17.5t3 12.5t8.5 10.5t13.5 5t22 2h31q16 0 25.5 -2t13.5 -11.5t4 -14.5t2 -27l45 -840q0 -8 1 -23.5t1 -23.5q0 -55 -33.5 -84t-72.5 -29t-75 27t-36 86zM174 915q0 47 33 78t76 31t74.5 -30.5t31.5 -78.5 q0 -45 -32.5 -75.5t-73.5 -30.5q-43 0 -76 30.5t-33 75.5z" />
<glyph unicode="&#xa2;" d="M76 471q0 201 115.5 330t316.5 151v191h121v-189q63 -2 96 -4t94.5 -14t92 -43t30.5 -78q0 -35 -23.5 -58.5t-58.5 -23.5q-29 0 -55.5 20.5t-26.5 67.5q-68 8 -149 8v-714q141 6 200 112q23 45 35 49q8 2 31 3h25q41 0 41 -21q0 -59 -88.5 -153.5t-243.5 -112.5v-191 h-121v191q-209 23 -320.5 153.5t-111.5 325.5zM229 471q0 -276 279 -346v700q-90 -14 -151.5 -58t-86 -103.5t-33 -103.5t-8.5 -89z" />
<glyph unicode="&#xa3;" horiz-adv-x="1308" d="M113 121q0 74 70.5 119t178.5 45q57 0 127 -17q6 39 7 181v202h-111q-47 2 -54 8.5t-7 42.5v11q0 41 6 50t30 9h136v270q0 106 25.5 188.5t63.5 127.5t89 73.5t92 37t84 8.5q158 0 251 -126t93 -276q0 -47 -26.5 -68.5t-55.5 -21.5q-33 0 -58.5 23.5t-25.5 58.5 q0 43 39 70q-16 72 -46 120t-65.5 67t-59.5 25.5t-46 6.5q-113 0 -168 -92q-43 -72 -43 -228v-264h188q43 0 43 -43v-24q-2 -37 -11 -45.5t-40 -8.5h-180v-274q0 -86 -18 -154q6 -2 48 -21.5t73 -31.5l77 -29q45 -16 86 -24t74 -8q127 0 149 153q4 27 12.5 33t30.5 6h33 q25 0 35 -6t10 -29q0 -92 -85 -184t-226 -92q-70 0 -143.5 22.5t-237.5 93.5q-109 -117 -268 -116q-76 0 -126 36t-50 95zM246 127q0 -18 43 -18q72 0 133 43q-57 14 -96 14q-31 0 -50.5 -8t-24.5 -16.5t-5 -14.5z" />
<glyph unicode="&#xa4;" horiz-adv-x="1591" d="M88 -63.5q0 14.5 23.5 41t92.5 93.5l118 115q-141 164 -142 416q0 244 142 418q-213 209 -224 227q-10 12 -10 25q0 14 12.5 25.5t24.5 11.5q6 0 11 -1t11.5 -4.5t11.5 -8.5t16 -15l22 -20l29 -30l39 -39l50 -51l62 -63q184 141 418 142q229 0 417 -142l103 105 q84 86 107.5 106.5t39.5 20.5q14 0 25.5 -12.5t11.5 -24.5q0 -16 -14.5 -33.5t-83.5 -87.5l-131 -131q139 -186 139 -418q0 -229 -139 -416l54 -54l46 -46l38 -37q19 -18 31 -31l22 -24l18 -20q6 -7 11 -15t7 -13t2 -12q0 -10 -8 -23t-29 -13q-16 0 -41.5 22.5t-92.5 90.5 l-118 118q-170 -139 -417 -139q-39 0 -78 4t-72 11t-60.5 15.5t-54 19.5t-45 20.5t-38 21.5t-29.5 19.5l-23.5 17.5t-15.5 10q-174 -178 -203 -204.5t-47 -26.5q-16 0 -27.5 12t-11.5 26.5zM262 602q0 -238 142.5 -384t388 -146t390 144t144.5 388q0 240 -144.5 386.5 t-385.5 146.5q-244 0 -389.5 -144.5t-145.5 -390.5z" />
<glyph unicode="&#xa5;" horiz-adv-x="1513" d="M31 1280v119h483v-119h-119l215 -334h285q27 0 36 5t27 32l191 297h-119v119h451v-119h-189l-213 -334h256q27 0 41 -2q51 -10 51 -57q0 -61 -86 -62h-340l-147 -231l-20 -35l-5 -37h510q55 0 76 -22q12 -16 12 -37q0 -59 -81 -60h-517v-282h183v-121h-512v121h182v282 h-508q-57 0 -78 25q-14 18 -14 35q0 61 82 61h4l4 -2h510q-2 39 -25 76l-67 104q-57 92 -72.5 107.5t-48.5 15.5h-307q-78 2 -78 60q0 45 47 59q12 2 41 2h260l-213 334h-188zM688 825l84 -133l86 133h-170z" />
<glyph unicode="&#xa6;" horiz-adv-x="342" d="M129 276q0 61 41 61.5t41 -58.5v-725q0 -63 -41 -63.5t-41 60.5v725zM129 748v722q0 63 41 63.5t41 -63.5v-722q0 -61 -41 -61t-41 61z" />
<glyph unicode="&#xa7;" horiz-adv-x="909" d="M141 524q0 86 40 163t110 122q-45 43 -71.5 76t-52.5 91t-26 122q0 129 87 232.5t227 103.5q123 0 202.5 -84t79.5 -183q0 -43 -23.5 -61.5t-47.5 -18.5q-29 0 -49.5 20.5t-20.5 49.5q0 18 14 47q-45 109 -157 109q-82 0 -144.5 -62.5t-62.5 -150.5q0 -57 36.5 -104.5 t75.5 -70t99.5 -49t70.5 -32.5q113 -59 175.5 -150.5t62.5 -193.5q0 -86 -40 -163t-110 -122q70 -66 110 -131.5t40 -157.5q0 -129 -87 -232.5t-226 -103.5q-121 0 -202 84t-81 183q0 43 23.5 61.5t48.5 18.5q31 0 50 -20.5t19 -49.5q0 -18 -14 -47q45 -109 158 -109 q88 0 147.5 65.5t59.5 145.5q0 57 -36 104.5t-72 69t-100.5 51t-74.5 33.5q-113 59 -175.5 150.5t-62.5 193.5zM246 526q0 -55 34.5 -104t82 -76t84 -41t49.5 -14q51 0 108.5 62.5t57.5 144.5q0 74 -61.5 132t-114 79.5t-72.5 23.5h-2q-53 0 -109.5 -62.5t-56.5 -144.5z" />
<glyph unicode="&#xa8;" d="M205 1290q0 47 31.5 78t74.5 31t76 -31t33 -78q0 -45 -33 -75.5t-74 -30.5q-47 0 -77.5 30.5t-30.5 75.5zM602 1290q0 47 32 78t75 31q45 0 76.5 -31t31.5 -78q0 -45 -32.5 -75.5t-75.5 -30.5t-75 30.5t-32 75.5z" />
<glyph unicode="&#xa9;" horiz-adv-x="2275" d="M567 489q0 229 156 370.5t403 141.5q180 0 328 -120q76 106 88 114q8 6 21 6q29 0 28 -38v-328q0 -23 -10 -31t-39 -8q-35 0 -49 5t-18.5 12.5t-10.5 35t-16 53.5q-31 70 -96.5 124.5t-171.5 54.5q-80 0 -153 -18.5t-143.5 -58.5t-112.5 -121t-42 -191q0 -195 124 -294.5 t331 -99.5q113 0 192.5 61.5t93.5 162.5q2 29 11.5 36t36.5 7h28q25 0 35 -6.5t10 -30.5q0 -125 -125 -238t-338 -113q-256 0 -408.5 143.5t-152.5 368.5zM113 514q0 473 281.5 759t744.5 286q459 0 740.5 -287t281.5 -762q0 -473 -282 -759t-744 -286q-459 0 -740.5 287 t-281.5 762zM195 510q0 -453 263 -708t675 -255q428 0 687 261.5t259 705.5q0 440 -259 701.5t-679 261.5q-428 0 -687 -261.5t-259 -705.5z" />
<glyph unicode="&#xaa;" horiz-adv-x="909" d="M55 627q0 23 15.5 38t33.5 19q14 2 39 2h627q84 0 84 -61q0 -59 -80 -60h-643q-76 1 -76 62zM92 938q0 31 18.5 53.5t39 32.5t53.5 20q137 37 344 37h6v82q0 115 -27 174q-47 94 -131 95q-51 0 -96 -37q20 -35 20 -58q0 -35 -24.5 -58.5t-56.5 -23.5q-29 0 -55.5 20.5 t-26.5 67.5q0 78 68.5 143.5t172.5 65.5q51 0 98.5 -17t95.5 -56t76.5 -120t28.5 -192v-270h2q41 -6 80 -9t54.5 -2t28.5 -5.5t16.5 -18.5t3.5 -41q0 -35 -15.5 -44t-52.5 -9h-72q-90 2 -126.5 17.5t-45.5 60.5q-123 -90 -301 -90q-92 0 -134 62.5t-42 119.5zM242 934 q0 -8 7 -19.5t38.5 -24.5t81.5 -13q137 0 180 100q-307 0 -307 -43z" />
<glyph unicode="&#xab;" horiz-adv-x="1138" d="M231 469q0 10 10.5 22.5t45.5 44t61 60.5q78 78 137.5 146.5t83.5 101.5l45 58q20 26 32.5 32t35.5 6h27q41 0 41 -20q0 -25 -126 -177.5t-247 -273.5q106 -102 239.5 -264t133.5 -185q0 -20 -41 -20h-27q-25 0 -37 7t-35 36l-53 69q-31 40 -110.5 127t-186.5 189 q-29 35 -29 41zM578 469q0 12 29 43l105 112q75 81 150 181q25 31 36 38t36 7h31q37 0 36.5 -20.5t-89.5 -132t-201 -228.5q88 -86 189 -212t101 -148q0 -18 -38 -19h-29h-16q-6 0 -13.5 3t-10.5 6l-12 13q-9 9 -16 17l-21 28l-30 38q-53 68 -115 134l-92 99q-30 33 -30 41z " />
<glyph unicode="&#xac;" horiz-adv-x="1366" d="M115 731q0 41 59 41h1012q35 0 50 -12t15 -53q0 -4 -1 -11.5t-1 -9.5v-432q0 -59 -39 -59q-12 0 -20 5t-12 13t-7 16l-4 17v8v436h-987q-65 0 -65 41z" />
<glyph unicode="&#xad;" horiz-adv-x="342" d="M20 399v140h545v-140h-545z" />
<glyph unicode="&#xae;" horiz-adv-x="2275" d="M539 0v121h182v739h-182v119h516q150 0 255 -26.5t157.5 -70.5t74 -87t21.5 -90q0 -141 -183 -226q104 -76 105 -219v-35q0 -78 37 -104q35 -23 73 -23q35 0 51.5 19.5t22.5 48.5t10 35q10 14 54 14h2q55 0 55 -43q0 -59 -46 -127t-147 -68q-31 0 -59.5 3.5t-68 16.5 t-69.5 35.5t-51.5 64.5t-21.5 98v84q0 25 -3 40t-14.5 37.5t-42 38t-79.5 25.5q-51 10 -150 10h-168v-309h181v-121h-512zM870 551h197l12 -2h23q166 0 233.5 48t67.5 108q0 156 -336 155h-197v-309zM113 514q0 473 281.5 759t744.5 286q459 0 740.5 -287t281.5 -762 q0 -473 -282 -759t-744 -286q-459 0 -740.5 287t-281.5 762zM195 510q0 -453 263 -708t675 -255q428 0 687 261.5t259 705.5q0 440 -259 701.5t-679 261.5q-428 0 -687 -261.5t-259 -705.5z" />
<glyph unicode="&#xaf;" d="M141 1296v125h738v-125h-738z" />
<glyph unicode="&#xb0;" horiz-adv-x="681" d="M113 1174q0 98 63.5 161.5t163.5 63.5q102 0 164.5 -63.5t62.5 -164t-62.5 -164t-164.5 -63.5q-98 0 -162.5 64t-64.5 166zM195 1171q0 -61 38.5 -102t106.5 -41q66 0 105.5 39t39.5 107q0 61 -38.5 102t-106.5 41q-66 0 -105.5 -39t-39.5 -107z" />
<glyph unicode="&#xb1;" horiz-adv-x="1593" d="M115 41q0 39 57 41h582v559h-578q-61 0 -61 41t61 41h578v577q0 61 41 61.5t41 -61.5v-577h577q61 0 61.5 -41t-61.5 -41h-577v-559h573q66 0 66 -41t-60 -41h-1239q-61 0 -61 41z" />
<glyph unicode="&#xb2;" horiz-adv-x="909" d="M102 711v88q0 18 6.5 30.5t12.5 16.5t26 16q207 129 226 139q10 6 63 34t78 45.5t62.5 47t55 63.5t17.5 73q0 66 -52 106.5t-115.5 54t-135.5 13.5q-53 0 -96 -31q25 -39 24 -66q0 -37 -25.5 -60.5t-58.5 -23.5q-37 0 -62.5 25t-25.5 66q0 92 93.5 151.5t234.5 59.5 q164 0 270.5 -81t106.5 -210q0 -49 -18.5 -88t-58.5 -71t-71.5 -50.5t-93 -48t-88.5 -43.5q-37 -20 -180 -107q23 0 68 -1t67 -1q160 0 189.5 4t33.5 25q2 2 2 4q14 61 29 168h121l-57 -348h-648z" />
<glyph unicode="&#xb3;" horiz-adv-x="909" d="M84 868q0 39 24.5 66t63.5 27t63.5 -26t24.5 -63q0 -10 -8 -43q59 -14 182 -14q160 0 207 70q20 35 21 67q0 55 -45.5 96.5t-159.5 43.5h-66q-33 0 -42 7t-9 42v26q0 25 8 34t20.5 10t44 4.5t62.5 9.5q63 12 100 50t37 79q0 51 -45 73.5t-104 22.5q-119 0 -182 -86 q31 -35 30 -68q0 -37 -25.5 -60.5t-60.5 -23.5t-59.5 25t-24.5 66q0 94 86 175t236 81q135 0 219 -56.5t84 -148.5q0 -115 -137 -203q193 -63 192 -201q0 -27 -10 -57.5t-36.5 -73.5t-92.5 -74.5t-160 -42.5q-31 -2 -92 -2q-346 0 -346 168z" />
<glyph unicode="&#xb4;" d="M418 1128l129 105q123 100 147.5 116.5t48.5 16.5q23 0 45.5 -21.5t22.5 -52.5q0 -27 -22.5 -47t-135.5 -98l-86 -60q-39 -31 -78 -53z" />
<glyph unicode="&#xb5;" horiz-adv-x="1148" d="M57 -279h170v1027q0 35 -22.5 44t-110.5 9h-37v121l314 28v-671q0 -96 30.5 -133t141.5 -37q96 0 175 61t79 205v360q0 47 -17.5 56.5t-105.5 9.5h-47v121l313 28v-749q0 -49 8 -62.5t49 -15.5q27 -2 82 -2h31v-121l-307 -10v133q-145 -133 -332 -133q-59 0 -100 10v-279 h170v-120h-484v120z" />
<glyph unicode="&#xb6;" horiz-adv-x="1251" d="M113 948q0 76 29.5 155t90 153.5t169 120.5t249.5 46h471q68 0 68 -43q0 -41 -64 -41q-4 0 -9 1t-7 1h-88v-1658h96q23 0 35 -1t24.5 -11.5t12.5 -28.5q0 -14 -9.5 -23.5t-18.5 -11.5t-19 -4l-13 -2h-522q-59 0 -59 41q0 18 12 28.5t24.5 11.5t39.5 1h92v788 q-256 12 -430 141t-174 336zM799 -317h141v1658h-141v-1658z" />
<glyph unicode="&#xb7;" horiz-adv-x="569" d="M174 524q0 41 32 74t77 33t76.5 -32t31.5 -75t-31.5 -75.5t-76.5 -32.5q-47 0 -78 32.5t-31 75.5z" />
<glyph unicode="&#xb8;" horiz-adv-x="909" d="M211 -311h65q274 0 275 98q0 37 -41 62.5t-127 27.5v123h143v-23q170 -59 170 -196q0 -35 -10 -63.5t-33.5 -49t-47 -37t-61.5 -25.5l-66 -17q-28 -7 -74 -10t-69.5 -5t-67.5 -3t-56 -1v119z" />
<glyph unicode="&#xb9;" horiz-adv-x="909" d="M141 1284v121q209 4 332 154h23q37 0 46 -14.5t9 -45.5v-668h215v-120h-596v120h238v539q-113 -82 -267 -86z" />
<glyph unicode="&#xba;" horiz-adv-x="909" d="M55 627q0 23 15.5 38t33.5 19q14 2 39 2h627q84 0 84 -61q0 -59 -80 -60h-643q-76 1 -76 62zM63 1147q0 182 106.5 293.5t285.5 111.5q176 0 282.5 -110.5t106.5 -292.5t-108.5 -286.5t-282.5 -104.5t-282 105.5t-108 283.5zM219 1165q0 -283 234 -282q236 0 235 278 q0 127 -51 199t-182 72q-236 -1 -236 -267z" />
<glyph unicode="&#xbb;" horiz-adv-x="1138" d="M131 109q0 20 89 131.5t204 230.5q-90 88 -191.5 213t-101.5 145.5t41 20.5h27q20 0 29.5 -3t18.5 -10.5t26.5 -33t44 -59t84 -99t133.5 -143.5q20 -18 20 -33q0 -6 -3 -11t-10 -13.5t-15 -15.5l-22 -22l-28 -28q-70 -74 -121 -135.5t-68.5 -87t-33.5 -44t-26.5 -20.5 t-37.5 -2h-14q-45 1 -45 19zM383 20q0 23 126 174.5t249 276.5q-98 92 -236.5 258t-138.5 191q0 20 41 20h22q18 0 27.5 -2t22 -12.5t20.5 -19.5t31 -39l43 -54q82 -98 164 -182l115 -117q34 -33 34 -45q0 -10 -8 -19.5t-43 -41.5l-68 -66q-82 -84 -143 -153.5t-83.5 -101.5 t-42 -54.5t-30 -27.5t-32.5 -5h-29q-41 0 -41 20z" />
<glyph unicode="&#xbc;" horiz-adv-x="909" d="M16 569q0 41 66 41h735q72 0 72 -41t-60 -41h-753q-60 0 -60 41zM55 -102v26q0 8 4 18.5t6.5 13.5l13.5 16.5t17 21.5l357 436q20 27 33.5 34t39.5 7h56q18 0 28.5 -3t18.5 -15.5t8 -34.5v-473h215v-119h-215v-105h199v-120h-539v120h199v105h-441v72zM141 1358v119 q123 0 197 20.5t106.5 41t55.5 20.5q27 0 38 -12.5t11 -43.5v-692h217v-119h-598v119h240v590q-103 -43 -267 -43zM209 -55h299v372z" />
<glyph unicode="&#xbd;" horiz-adv-x="909" d="M16 569q0 41 66 41h735q72 0 72 -41t-60 -41h-753q-60 0 -60 41zM100 -332v17q0 4 1 12t6.5 12t10.5 11.5t16 15.5l25 18q13 10 36.5 24.5t47 32t61.5 43.5l77 54q8 6 70.5 46t95.5 64.5t66.5 73.5t33.5 98q0 158 -309 158q-45 0 -86 -22q20 -29 20 -60 q0 -37 -25.5 -61.5t-60 -24.5t-59.5 25.5t-25 64.5q0 88 89.5 143.5t234.5 55.5q166 0 272.5 -76t106.5 -198q0 -47 -16.5 -86t-54.5 -73t-64.5 -53.5t-87 -52t-80.5 -47.5q-18 -10 -40 -25l-68 -46l-93 -62h129q164 0 191.5 3t31.5 24q2 2 2 4q4 18 16.5 90t14.5 78h119 l-55 -348h-650v67zM141 1358v119q123 0 197 20.5t106.5 41t55.5 20.5q27 0 38 -12.5t11 -43.5v-692h217v-119h-598v119h240v590q-103 -43 -267 -43z" />
<glyph unicode="&#xbe;" horiz-adv-x="909" d="M16 569q0 41 66 41h735q72 0 72 -41t-60 -41h-753q-60 0 -60 41zM55 -102v26q0 8 4 18.5t6.5 13.5l13.5 16.5t17 21.5l357 436q20 27 33.5 34t39.5 7h56q18 0 28.5 -3t18.5 -15.5t8 -34.5v-473h215v-119h-215v-105h199v-120h-539v120h199v105h-441v72zM84 842 q0 39 25.5 64.5t62.5 25.5q41 0 64.5 -25.5t23.5 -62.5q0 -20 -10 -45q74 -14 188 -15q158 0 203 74q20 29 21 72q0 74 -64 114q-53 33 -178 33h-39q-18 0 -27.5 6.5t-11.5 13.5t-2 25q0 2 -1 11.5t-1 15.5q0 31 10 41q8 8 58.5 11t104.5 21.5t83 67.5q18 25 18 60 q0 100 -159 100h-4q-94 -2 -156 -29q18 -33 18 -61q0 -37 -25.5 -58.5t-58.5 -21.5q-31 0 -58.5 20.5t-27.5 67.5q0 86 86 138.5t226 52.5q166 0 239.5 -64.5t73.5 -144.5q0 -129 -141 -213q76 -18 136 -71.5t60 -137.5q0 -43 -17.5 -84t-56 -82t-117.5 -66.5t-188 -25.5 q-358 0 -358 172zM209 -55h299v372z" />
<glyph unicode="&#xbf;" horiz-adv-x="966" d="M113 -106q0 59 17 108t26.5 64.5t52.5 59.5l45 46q139 158 139 360v46q0 39 8.5 48t40.5 9h23q29 0 38 -7t11 -32v-66q0 -279 -174 -473q-51 -53 -64 -94q-8 -31 -8 -74q0 -98 42 -138t143 -40q186 0 264 117q-31 31 -31 63q0 35 24.5 58.5t57.5 23.5q31 0 57.5 -20.5 t26.5 -67.5q0 -104 -102.5 -199.5t-298.5 -95.5q-168 0 -253 79.5t-85 224.5zM346 915q0 47 33 78t76 31t74.5 -30.5t31.5 -78.5q0 -45 -32.5 -75.5t-73.5 -30.5q-43 0 -76 30.5t-33 75.5z" />
<glyph unicode="&#xc0;" horiz-adv-x="1513" d="M70 0v121h174l422 1227q18 53 32.5 64t55.5 11h8q41 0 54 -12t30 -61q4 -12 6 -21l208 -601q198 -572 208 -607h174v-121h-481v121h151l-111 317h-522l-108 -317h149v-121h-450zM475 1688q0 27 18.5 50t49.5 23q16 0 84.5 -31.5t156.5 -76.5t111 -56l-49 -110l-138 57 l-149 62q-84 33 -84 82zM522 559h439l-220 635z" />
<glyph unicode="&#xc1;" horiz-adv-x="1513" d="M70 0v121h174l422 1227q18 53 32.5 64t55.5 11h8q41 0 54 -12t30 -61q4 -12 6 -21l208 -601q198 -572 208 -607h174v-121h-481v121h151l-111 317h-522l-108 -317h149v-121h-450zM522 559h439l-220 635zM561 1597l162 80q168 84 190 84q29 0 48.5 -23.5t19.5 -49.5 q0 -41 -47 -66l-115 -47q-168 -72 -209 -88z" />
<glyph unicode="&#xc2;" horiz-adv-x="1513" d="M70 0v121h174l422 1227q18 53 32.5 64t55.5 11h8q41 0 54 -12t30 -61q4 -12 6 -21l208 -601q198 -572 208 -607h174v-121h-481v121h151l-111 317h-522l-108 -317h149v-121h-450zM461 1587l295 250h2l295 -250l-80 -90h-2l-213 203h-2l-215 -203zM522 559h439l-220 635z " />
<glyph unicode="&#xc3;" horiz-adv-x="1513" d="M70 0v121h174l422 1227q18 53 32.5 64t55.5 11h8q41 0 54 -12t30 -61q4 -12 6 -21l208 -601q198 -572 208 -607h174v-121h-481v121h151l-111 317h-522l-108 -317h149v-121h-450zM358 1622l31 39l31 39q8 10 27.5 32.5t29.5 32t28.5 23.5t32 20.5t32 11.5t36.5 5 q53 0 143.5 -51.5t143.5 -51.5q74 0 168 105l94 -76q-10 -14 -35 -45l-36 -44l-31 -37q-20 -24 -34.5 -34l-34 -22.5t-38 -17.5t-39.5 -5q-51 0 -143 51.5t-146 51.5q-76 0 -167 -103zM522 559h439l-220 635z" />
<glyph unicode="&#xc4;" horiz-adv-x="1513" d="M70 0v121h174l422 1227q18 53 32.5 64t55.5 11h8q41 0 54 -12t30 -61q4 -12 6 -21l208 -601q198 -572 208 -607h174v-121h-481v121h151l-111 317h-522l-108 -317h149v-121h-450zM451 1665q0 47 31.5 78t74.5 31t75 -31t32 -78q0 -45 -33 -75.5t-74 -30.5 q-47 0 -76.5 30.5t-29.5 75.5zM522 559h439l-220 635zM848 1665q0 45 31.5 77t74.5 32q45 0 77 -31t32 -78q0 -45 -32 -75.5t-75 -30.5q-47 0 -77.5 32.5t-30.5 73.5z" />
<glyph unicode="&#xc5;" horiz-adv-x="1513" d="M70 0v121h174l415 1204q-131 68 -131 250q0 119 62.5 192.5t165 73.5t165 -72.5t62.5 -193.5q0 -176 -129 -250l414 -1204h174v-121h-481v121h151l-111 317h-522l-108 -317h149v-121h-450zM522 559h439l-220 635zM643 1577q0 -31 2 -50.5t12.5 -46t35 -41t63.5 -14.5 q113 0 112 142q0 43 -3 69.5t-29.5 56t-77.5 29.5q-115 0 -115 -145z" />
<glyph unicode="&#xc6;" horiz-adv-x="1837" d="M70 0v121h174l409 1159h-108v119h1122l55 -518h-118q-33 279 -47.5 327.5t-63.5 59.5q-74 12 -248 12h-254v-547h150q174 2 194 15q18 10 25 61v10q2 43 2 131v23h121v-600h-121v22q0 88 -2 131q-4 57 -18.5 69.5t-90.5 14.5q-41 2 -123 2h-137v-491h275q274 0 307 35 q25 25 86 428h121l-86 -584h-989v121h137v491h-297l-172 -491h147v-121h-450zM588 733h254v547h-62z" />
<glyph unicode="&#xc7;" horiz-adv-x="1478" d="M113 698q0 332 192.5 527.5t491.5 195.5q242 0 417 -186q86 170 99 178q6 6 20 6h4q16 2 21.5 -11t5.5 -32v-452q0 -31 -11.5 -38t-58.5 -7q-29 0 -39 6t-14 30q-27 156 -127 270.5t-262 114.5q-80 0 -154.5 -15t-153.5 -57t-137.5 -107.5t-96.5 -173t-38 -247.5 q0 -170 55.5 -294.5t145.5 -188t183.5 -91.5t193.5 -28q172 0 274.5 104.5t116.5 239.5q2 27 5 35t13.5 13.5t36.5 5.5h15q33 -2 43 -8.5t10 -28.5q0 -158 -130 -302.5t-360 -174.5v-5q172 -63 173 -196q0 -35 -11.5 -64.5t-34 -50t-46 -36t-61.5 -26t-66.5 -16.5t-72.5 -9 t-68.5 -5t-69 -3t-56.5 -1v119h60q281 0 280 94q0 92 -170 94v103q-158 18 -276.5 81.5t-181 140.5t-101.5 177t-49 172.5t-10 146.5z" />
<glyph unicode="&#xc8;" horiz-adv-x="1382" d="M473 1688q0 27 19.5 50t50.5 23q18 0 352 -164l-49 -110l-80 33l-164 68q-84 36 -94 42q-35 19 -35 58zM98 0v121h183v1153h-183v119h1112l58 -519h-121q-29 262 -47 330q-10 33 -33 46.5t-91.5 18.5t-238.5 5h-303v-490h158q164 0 192.5 10.5t32.5 65.5v10q4 43 4 134 v20h119v-600h-119v20q0 88 -4 134q-4 59 -25.5 72.5t-117.5 13.5h-240v-543h328q174 0 248.5 7t94 20.5t30.5 50.5q29 92 69 385h121l-86 -584h-1141z" />
<glyph unicode="&#xc9;" horiz-adv-x="1382" d="M588 1597q326 160 340 162q6 2 12 2q31 0 49.5 -23.5t18.5 -49.5q0 -33 -21.5 -49.5t-99.5 -47.5l-39 -16q-152 -66 -211 -88zM98 0v121h183v1153h-183v119h1112l58 -519h-121q-29 262 -47 330q-10 33 -33 46.5t-91.5 18.5t-238.5 5h-303v-490h158q164 0 192.5 10.5 t32.5 65.5v10q4 43 4 134v20h119v-600h-119v20q0 88 -4 134q-4 59 -25.5 72.5t-117.5 13.5h-240v-543h328q174 0 248.5 7t94 20.5t30.5 50.5q29 92 69 385h121l-86 -584h-1141z" />
<glyph unicode="&#xca;" horiz-adv-x="1382" d="M403 1585v2l295 250h2l293 -250v-2l-78 -88l-215 203h-2l-217 -203zM98 0v121h183v1153h-183v119h1112l58 -519h-121q-29 262 -47 330q-10 33 -33 46.5t-91.5 18.5t-238.5 5h-303v-490h158q164 0 192.5 10.5t32.5 65.5v10q4 43 4 134v20h119v-600h-119v20q0 88 -4 134 q-4 59 -25.5 72.5t-117.5 13.5h-240v-543h328q174 0 248.5 7t94 20.5t30.5 50.5q29 92 69 385h121l-86 -584h-1141z" />
<glyph unicode="&#xcb;" horiz-adv-x="1382" d="M791 1665q0 45 31.5 77t74.5 32q45 0 77 -31t32 -78q0 -45 -33 -75.5t-74 -30.5q-47 0 -77.5 31.5t-30.5 74.5zM391 1665q0 47 33 78t76 31t74.5 -31t31.5 -78q0 -45 -32.5 -75.5t-73.5 -30.5q-43 0 -76 30.5t-33 75.5zM98 0v121h183v1153h-183v119h1112l58 -519h-121 q-29 262 -47 330q-10 33 -33 46.5t-91.5 18.5t-238.5 5h-303v-490h158q164 0 192.5 10.5t32.5 65.5v10q4 43 4 134v20h119v-600h-119v20q0 88 -4 134q-4 59 -25.5 72.5t-117.5 13.5h-240v-543h328q174 0 248.5 7t94 20.5t30.5 50.5q29 92 69 385h121l-86 -584h-1141z" />
<glyph unicode="&#xcc;" horiz-adv-x="716" d="M104 1688q0 27 19.5 50t50.5 23q16 0 350 -164l-49 -110l-80 33l-163 68q-83 36 -93 42q-35 19 -35 58zM90 0v121h191v1159h-191v119h537v-119h-191v-1159h191v-121h-537z" />
<glyph unicode="&#xcd;" horiz-adv-x="716" d="M156 1597l174 86q158 78 178 78q31 0 50.5 -23.5t19.5 -49.5q0 -8 -1.5 -15.5t-3.5 -12.5t-7 -10l-9 -10q-4 -4 -14.5 -10t-17.5 -9l-21 -9l-25 -10l-29 -13l-34 -14q-152 -66 -211 -88zM90 0v121h191v1159h-191v119h537v-119h-191v-1159h191v-121h-537z" />
<glyph unicode="&#xce;" horiz-adv-x="716" d="M61 1585v2l295 250h2l295 -250v-2l-80 -88l-215 203h-2l-215 -203zM90 0v121h191v1159h-191v119h537v-119h-191v-1159h191v-121h-537z" />
<glyph unicode="&#xcf;" horiz-adv-x="716" d="M51 1665q0 47 32 78t75 31t75.5 -31t32.5 -78q0 -45 -32.5 -75.5t-73.5 -30.5q-47 0 -78 30.5t-31 75.5zM449 1665q0 47 31.5 78t74.5 31q45 0 77 -31t32 -78q0 -45 -33 -75.5t-76 -30.5t-74.5 30.5t-31.5 75.5zM90 0v121h191v1159h-191v119h537v-119h-191v-1159h191 v-121h-537z" />
<glyph unicode="&#xd0;" horiz-adv-x="1552" d="M100 0v121h183v506h-109q-55 0 -63 12q-10 14 -11 55q0 49 43 54h140v532h-183v119h672q154 0 273.5 -45t191.5 -116t119 -167t64.5 -189.5t17.5 -195.5q0 -45 -4 -92t-22.5 -125t-50.5 -144.5t-95.5 -137t-149.5 -115.5q-133 -72 -346 -72h-670zM430 121h315 q537 0 537 567q0 119 -24.5 217.5t-81 186.5t-167 138t-264.5 50h-315v-532h365q49 -2 49 -58q0 -41 -13.5 -52t-46.5 -11h-354v-506z" />
<glyph unicode="&#xd1;" horiz-adv-x="1513" d="M358 1622l28 36q19 26 28 35l25 29q17 20 27 30l24 24q15 14 27.5 20t27 14.5t30 11.5t31.5 3q53 0 143.5 -51.5t143.5 -51.5q74 0 168 105l94 -76l-31 -39l-30 -39l-28 -34q-19 -24 -31 -32l-28 -24q-17 -14 -31.5 -20.5t-32 -11.5t-36.5 -5q-51 0 -143 51.5t-146 51.5 q-76 0 -167 -103zM102 0v121h183v1159h-183v119h277q43 0 67 -39l662 -1073v993h-182v119h485v-119h-182v-1214q0 -23 -1 -33t-13.5 -21.5t-38.5 -11.5h-13q-29 0 -40 8t-27 33l-690 1122v-1042h182v-121h-486z" />
<glyph unicode="&#xd2;" horiz-adv-x="1593" d="M113 692q0 334 187 531.5t497 197.5q307 0 493.5 -197.5t186.5 -527.5q0 -334 -189.5 -526.5t-494.5 -192.5q-307 0 -493.5 195.5t-186.5 519.5zM272 725q0 -176 49.5 -303t132.5 -192.5t167 -94.5t174 -29q72 0 139 16.5t139 60.5t124 110.5t86 178.5t34 253 q0 129 -33 231.5t-85 165t-122.5 103.5t-139.5 56t-140 15q-94 0 -179.5 -27.5t-167 -88t-130 -178t-48.5 -277.5zM571 1688q0 27 19.5 50t50.5 23q10 0 20.5 -3t36.5 -16l57 -28l97 -48l139 -69l-49 -110l-80 33l-164 68q-84 36 -94 42q-33 19 -33 58z" />
<glyph unicode="&#xd3;" horiz-adv-x="1593" d="M600 1597q326 160 336 162q6 2 14 2q31 0 50.5 -23.5t19.5 -49.5q0 -33 -21.5 -49.5t-99.5 -47.5l-39 -16l-211 -88zM113 692q0 334 187 531.5t497 197.5q307 0 493.5 -197.5t186.5 -527.5q0 -334 -189.5 -526.5t-494.5 -192.5q-307 0 -493.5 195.5t-186.5 519.5z M272 725q0 -176 49.5 -303t132.5 -192.5t167 -94.5t174 -29q72 0 139 16.5t139 60.5t124 110.5t86 178.5t34 253q0 129 -33 231.5t-85 165t-122.5 103.5t-139.5 56t-140 15q-94 0 -179.5 -27.5t-167 -88t-130 -178t-48.5 -277.5z" />
<glyph unicode="&#xd4;" horiz-adv-x="1593" d="M500 1585v2l295 250h2l293 -250v-2l-78 -88l-215 203h-2l-217 -203zM113 692q0 334 187 531.5t497 197.5q307 0 493.5 -197.5t186.5 -527.5q0 -334 -189.5 -526.5t-494.5 -192.5q-307 0 -493.5 195.5t-186.5 519.5zM272 725q0 -176 49.5 -303t132.5 -192.5t167 -94.5 t174 -29q72 0 139 16.5t139 60.5t124 110.5t86 178.5t34 253q0 129 -33 231.5t-85 165t-122.5 103.5t-139.5 56t-140 15q-94 0 -179.5 -27.5t-167 -88t-130 -178t-48.5 -277.5z" />
<glyph unicode="&#xd5;" horiz-adv-x="1593" d="M397 1622l35 44l35 44t31.5 35.5t35 34t33 23t39 17.5t39.5 5q51 0 143.5 -51.5t143.5 -51.5q74 0 168 105l92 -76l-35 -44l-36 -45l-30 -36q-22 -25 -35 -34l-33 -22q-19 -13 -38.5 -18.5t-40.5 -5.5q-51 0 -142 51.5t-145 51.5q-82 0 -165 -103zM113 692 q0 334 187 531.5t497 197.5q307 0 493.5 -197.5t186.5 -527.5q0 -334 -189.5 -526.5t-494.5 -192.5q-307 0 -493.5 195.5t-186.5 519.5zM272 725q0 -176 49.5 -303t132.5 -192.5t167 -94.5t174 -29q72 0 139 16.5t139 60.5t124 110.5t86 178.5t34 253q0 129 -33 231.5 t-85 165t-122.5 103.5t-139.5 56t-140 15q-94 0 -179.5 -27.5t-167 -88t-130 -178t-48.5 -277.5z" />
<glyph unicode="&#xd6;" horiz-adv-x="1593" d="M489 1665q0 47 32 78t75 31t76 -31t33 -78q0 -45 -33 -75.5t-76 -30.5q-45 0 -76 32.5t-31 73.5zM887 1665q0 45 31.5 77t74.5 32q45 0 77 -31t32 -78q0 -45 -33 -75.5t-74 -30.5q-47 0 -77.5 31.5t-30.5 74.5zM113 692q0 334 187 531.5t497 197.5q307 0 493.5 -197.5 t186.5 -527.5q0 -334 -189.5 -526.5t-494.5 -192.5q-307 0 -493.5 195.5t-186.5 519.5zM272 725q0 -176 49.5 -303t132.5 -192.5t167 -94.5t174 -29q72 0 139 16.5t139 60.5t124 110.5t86 178.5t34 253q0 129 -33 231.5t-85 165t-122.5 103.5t-139.5 56t-140 15 q-94 0 -179.5 -27.5t-167 -88t-130 -178t-48.5 -277.5z" />
<glyph unicode="&#xd7;" horiz-adv-x="1593" d="M303 965q0 16 12.5 27.5t22.5 11.5h6q18 0 59 -41l394 -394l393 394q35 41 59 41q20 0 28.5 -12.5t8.5 -22.5q0 -20 -13 -35.5t-87 -89.5l-203 -203l-129 -129l387 -387q45 -45 45 -66q0 -18 -11 -28.5t-26 -10.5q-20 0 -61 41l-393 394l-383 -385q-49 -49 -70 -50 q-14 0 -25.5 10.5t-11.5 26.5q0 14 8 29q6 8 37 39l140 140l247 247l-385 387q-49 46 -49 66z" />
<glyph unicode="&#xd8;" horiz-adv-x="1593" d="M113 692q0 334 187 531.5t495 197.5q174 0 323 -71l111 182h2l106 -66l-110 -184q250 -201 250 -588q0 -326 -187.5 -521.5t-494.5 -195.5q-170 0 -324 72l-111 -182l-106 65l108 183q-125 98 -187 249.5t-62 327.5zM260 692q0 -315 170 -469l625 1022q-125 55 -260 55 q-98 0 -185.5 -27.5t-170.5 -92t-131 -189.5t-48 -299zM535 154q123 -55 260 -56q78 0 150.5 16.5t144 58.5t124 106.5t85 171t32.5 241.5q0 319 -172 482h-2z" />
<glyph unicode="&#xd9;" horiz-adv-x="1513" d="M530 1688q0 27 19.5 50t50.5 23q16 0 85 -31.5t157 -76.5l110 -56l-49 -110l-138 57l-151 62q-84 33 -84 82zM98 1280v119h520v-119h-182v-788q0 -219 103 -314q86 -80 227 -80q152 0 249 90.5t97 300.5v791h-184v119h485v-119h-182v-782q0 -121 -31 -216.5t-78 -150.5 t-111.5 -91t-124 -49.5t-122.5 -13.5q-84 0 -162 24t-153.5 78t-121.5 160.5t-46 254.5v786h-183z" />
<glyph unicode="&#xda;" horiz-adv-x="1513" d="M645 1597l174 86q158 78 178 78q31 0 50.5 -23.5t19.5 -49.5q0 -41 -47 -66l-115 -47l-211 -88zM98 1280v119h520v-119h-182v-788q0 -219 103 -314q86 -80 227 -80q152 0 249 90.5t97 300.5v791h-184v119h485v-119h-182v-782q0 -121 -31 -216.5t-78 -150.5t-111.5 -91 t-124 -49.5t-122.5 -13.5q-84 0 -162 24t-153.5 78t-121.5 160.5t-46 254.5v786h-183z" />
<glyph unicode="&#xdb;" horiz-adv-x="1513" d="M469 1587l295 250h2l295 -250l-80 -90h-2l-213 203h-2l-215 -203zM98 1280v119h520v-119h-182v-788q0 -219 103 -314q86 -80 227 -80q152 0 249 90.5t97 300.5v791h-184v119h485v-119h-182v-782q0 -121 -31 -216.5t-78 -150.5t-111.5 -91t-124 -49.5t-122.5 -13.5 q-84 0 -162 24t-153.5 78t-121.5 160.5t-46 254.5v786h-183z" />
<glyph unicode="&#xdc;" horiz-adv-x="1513" d="M449 1665q0 47 32.5 78t75.5 31q45 0 76 -33t31 -76q0 -45 -32 -75.5t-75 -30.5q-45 0 -76.5 32.5t-31.5 73.5zM848 1665q0 45 31.5 77t74.5 32q45 0 77 -31t32 -78q0 -45 -33 -75.5t-74 -30.5q-47 0 -77.5 32.5t-30.5 73.5zM98 1280v119h520v-119h-182v-788 q0 -219 103 -314q86 -80 227 -80q152 0 249 90.5t97 300.5v791h-184v119h485v-119h-182v-782q0 -121 -31 -216.5t-78 -150.5t-111.5 -91t-124 -49.5t-122.5 -13.5q-84 0 -162 24t-153.5 78t-121.5 160.5t-46 254.5v786h-183z" />
<glyph unicode="&#xdd;" horiz-adv-x="1513" d="M647 1597q324 160 336 162q8 2 14 2q31 0 50.5 -23.5t19.5 -49.5q0 -8 -1 -15.5t-5 -14.5t-8 -11.5t-12.5 -10.5t-15.5 -10t-21 -10l-26 -11l-33 -15l-38 -15l-211 -88zM31 1280v119h483v-119h-119l377 -588l377 588h-119v119h451v-119h-189l-440 -686q-23 -37 -23 -74 v-399h183v-121h-512v121h182v383q0 53 -23 90l-440 686h-188z" />
<glyph unicode="&#xde;" horiz-adv-x="1267" d="M104 0v121h183v1159h-183v119h506v-119h-180v-129h272q111 0 195 -27.5t131 -69.5t77 -97.5t39 -102.5t9 -96q0 -53 -11.5 -104.5t-43 -104.5t-79.5 -93t-127 -65.5t-179 -25.5h-283v-244h180v-121h-506zM430 483h227q100 0 172 28t107 72t49 88t14 89t-13 86t-45 86 t-100.5 72.5t-164.5 27.5h-246v-549z" />
<glyph unicode="&#xdf;" horiz-adv-x="1030" d="M49 0v121h170v698h-170v119h170v203q0 293 297 293q285 0 285 -297q0 -256 -101 -291q-4 -2 -21 -5t-26.5 -8.5t-23 -17.5t-19.5 -37.5t-6 -64.5q0 -47 10.5 -76t31 -42t40 -19.5t52 -13.5t53.5 -15q66 -29 116.5 -96.5t50.5 -178.5q0 -154 -76.5 -218t-185.5 -64 q-78 0 -141 55q-27 -55 -53 -55q-12 0 -23 8q-8 6 -8 45v264q0 39 9 47t52 8h17q39 0 45 -36l6 -44q4 -30 7 -45.5t8.5 -39t11.5 -35.5t16 -25.5t24.5 -19.5t32.5 -6q49 0 88 33.5t39 115.5q0 61 -27.5 100t-62.5 54q-14 6 -50 13t-70.5 20.5t-63.5 39.5q-82 76 -82 211 q0 242 209 256q0 14 1 39t1 37v76q0 109 -30.5 158t-139.5 49q-53 0 -86 -14.5t-47 -44t-18.5 -52t-4.5 -57.5v-1145h-307z" />
<glyph unicode="&#xe0;" horiz-adv-x="1001" d="M324 1292q0 27 20.5 50.5t50.5 23.5q6 0 10.5 -1t9.5 -2t12 -5t14 -9l21 -16l27 -21l38 -31l48 -39l63 -50l79 -64l-72 -94l-254 176q-39 27 -53 42t-14 40zM92 266q0 111 82 186.5t207 107.5t285 32v47q0 94 -52.5 145.5t-179.5 51.5q-47 0 -115 -7q2 -51 -23.5 -73.5 t-57.5 -22.5q-39 0 -60.5 24.5t-21.5 59.5q0 137 288 137q96 0 172 -23.5t134.5 -97t58.5 -192.5v-448q0 -45 41 -60q37 -12 76 -12q27 0 38 -2t20 -16.5t9 -45.5q0 -35 -12 -46t-47 -11h-37q-82 0 -131 22.5t-60.5 41t-19.5 45.5q-141 -121 -362 -121q-113 0 -172.5 87 t-59.5 191zM236 270q0 -72 56 -116.5t136 -44.5q100 0 180 61q57 45 58 141v176q-244 -8 -337 -71.5t-93 -145.5z" />
<glyph unicode="&#xe1;" horiz-adv-x="1001" d="M303 1128q270 217 291 230q16 8 35 8q23 0 45 -21.5t22 -52.5q0 -27 -22.5 -47t-134.5 -98l-86 -60q-39 -31 -78 -53zM92 266q0 111 82 186.5t207 107.5t285 32v47q0 94 -52.5 145.5t-179.5 51.5q-47 0 -115 -7q2 -51 -23.5 -73.5t-57.5 -22.5q-39 0 -60.5 24.5 t-21.5 59.5q0 137 288 137q96 0 172 -23.5t134.5 -97t58.5 -192.5v-448q0 -45 41 -60q37 -12 76 -12q27 0 38 -2t20 -16.5t9 -45.5q0 -35 -12 -46t-47 -11h-37q-82 0 -131 22.5t-60.5 41t-19.5 45.5q-141 -121 -362 -121q-113 0 -172.5 87t-59.5 191zM236 270 q0 -72 56 -116.5t136 -44.5q100 0 180 61q57 45 58 141v176q-244 -8 -337 -71.5t-93 -145.5z" />
<glyph unicode="&#xe2;" horiz-adv-x="1001" d="M156 1110l297 266h2l295 -266l-82 -88l-213 217h-2l-215 -217zM92 266q0 111 82 186.5t207 107.5t285 32v47q0 94 -52.5 145.5t-179.5 51.5q-47 0 -115 -7q2 -51 -23.5 -73.5t-57.5 -22.5q-39 0 -60.5 24.5t-21.5 59.5q0 137 288 137q96 0 172 -23.5t134.5 -97 t58.5 -192.5v-448q0 -45 41 -60q37 -12 76 -12q27 0 38 -2t20 -16.5t9 -45.5q0 -35 -12 -46t-47 -11h-37q-82 0 -131 22.5t-60.5 41t-19.5 45.5q-141 -121 -362 -121q-113 0 -172.5 87t-59.5 191zM236 270q0 -72 56 -116.5t136 -44.5q100 0 180 61q57 45 58 141v176 q-244 -8 -337 -71.5t-93 -145.5z" />
<glyph unicode="&#xe3;" horiz-adv-x="1001" d="M147 1214q10 14 38 50l39 49q11 14 35 38.5t39 36t35.5 20.5t39.5 9q41 0 108.5 -50t108.5 -50q27 0 55.5 17.5t43.5 33.5l46 51l94 -76l-32 -41l-33 -44q-8 -11 -29.5 -35.5t-34 -34.5l-30 -23.5t-33.5 -18.5t-33 -5q-43 0 -108.5 50t-106.5 50q-59 0 -147 -102zM92 266 q0 111 82 186.5t207 107.5t285 32v47q0 94 -52.5 145.5t-179.5 51.5q-47 0 -115 -7q2 -51 -23.5 -73.5t-57.5 -22.5q-39 0 -60.5 24.5t-21.5 59.5q0 137 288 137q96 0 172 -23.5t134.5 -97t58.5 -192.5v-448q0 -45 41 -60q37 -12 76 -12q27 0 38 -2t20 -16.5t9 -45.5 q0 -35 -12 -46t-47 -11h-37q-82 0 -131 22.5t-60.5 41t-19.5 45.5q-141 -121 -362 -121q-113 0 -172.5 87t-59.5 191zM236 270q0 -72 56 -116.5t136 -44.5q100 0 180 61q57 45 58 141v176q-244 -8 -337 -71.5t-93 -145.5z" />
<glyph unicode="&#xe4;" horiz-adv-x="1001" d="M205 1290q0 43 30.5 76t75.5 33q43 0 76 -31t33 -78q0 -45 -33 -75.5t-74 -30.5q-47 0 -77.5 30.5t-30.5 75.5zM602 1290q0 47 32 78t75 31q45 0 76.5 -31t31.5 -78q0 -45 -32.5 -75.5t-75.5 -30.5t-75 30.5t-32 75.5zM92 266q0 111 82 186.5t207 107.5t285 32v47 q0 94 -52.5 145.5t-179.5 51.5q-47 0 -115 -7q2 -51 -23.5 -73.5t-57.5 -22.5q-39 0 -60.5 24.5t-21.5 59.5q0 137 288 137q96 0 172 -23.5t134.5 -97t58.5 -192.5v-448q0 -45 41 -60q37 -12 76 -12q27 0 38 -2t20 -16.5t9 -45.5q0 -35 -12 -46t-47 -11h-37q-82 0 -131 22.5 t-60.5 41t-19.5 45.5q-141 -121 -362 -121q-113 0 -172.5 87t-59.5 191zM236 270q0 -72 56 -116.5t136 -44.5q100 0 180 61q57 45 58 141v176q-244 -8 -337 -71.5t-93 -145.5z" />
<glyph unicode="&#xe5;" horiz-adv-x="1001" d="M227 1204.5q0 67.5 54.5 122.5t173 55t172 -55t53.5 -122.5t-53.5 -123t-173.5 -55.5q-119 0 -172.5 55.5t-53.5 123zM342 1204q0 -106 109 -106q117 0 116.5 106.5t-110.5 106.5q-55 0 -85 -24t-30 -83zM92 266q0 111 82 186.5t207 107.5t285 32v47q0 94 -52.5 145.5 t-179.5 51.5q-47 0 -115 -7q2 -51 -23.5 -73.5t-57.5 -22.5q-39 0 -60.5 24.5t-21.5 59.5q0 137 288 137q96 0 172 -23.5t134.5 -97t58.5 -192.5v-448q0 -45 41 -60q37 -12 76 -12q27 0 38 -2t20 -16.5t9 -45.5q0 -35 -12 -46t-47 -11h-37q-82 0 -131 22.5t-60.5 41 t-19.5 45.5q-141 -121 -362 -121q-113 0 -172.5 87t-59.5 191zM236 270q0 -72 56 -116.5t136 -44.5q100 0 180 61q57 45 58 141v176q-244 -8 -337 -71.5t-93 -145.5z" />
<glyph unicode="&#xe6;" horiz-adv-x="1478" d="M98 256q0 133 124 211t339 94q16 0 53 2t54 2v84q0 186 -234 187q-45 0 -112 -7q2 -53 -24 -74.5t-58 -21.5q-35 0 -58.5 23.5t-23.5 60.5q0 137 284 137q133 0 206 -38.5t122 -106.5q115 145 311 145q96 0 167 -37.5t107 -101t51 -129t15 -137.5q0 -27 -8 -40t-18.5 -15 t-30.5 -2h-553q0 -354 328 -377h16q96 0 141 137q10 29 21.5 35t44.5 6q57 0 57 -35q0 -70 -86 -169t-229 -99q-217 0 -340 164h-2q-125 -166 -436 -166q-63 0 -111.5 29.5t-72 74.5t-34 86t-10.5 78zM242 260q0 -57 50 -104t140 -47q49 0 99.5 14t96.5 60t46 116 q0 16 -3 71.5t-3 82.5q-125 -2 -213 -21.5t-132 -49.5t-62.5 -59.5t-18.5 -62.5zM823 604h473q-25 231 -217 232q-27 0 -55.5 -6.5t-72.5 -27t-79 -71.5t-49 -127z" />
<glyph unicode="&#xe7;" horiz-adv-x="909" d="M76 471q0 86 22.5 167t71.5 154.5t141 118.5t217 45q145 0 223 -30.5t78 -108.5q0 -39 -24.5 -61.5t-59.5 -22.5q-29 0 -55 20.5t-26 69.5q-43 6 -132 6h-4q-113 0 -182.5 -55t-92 -130t-22.5 -171q0 -193 100.5 -275.5t229.5 -82.5q63 0 101 32.5t56.5 75.5t22.5 47 q8 8 52 9q55 0 55 -25q0 -55 -69.5 -143t-194.5 -115v-19q170 -59 170 -196q0 -35 -10.5 -63.5t-34 -49t-47 -37t-61.5 -25.5l-65 -17q-28 -7 -74 -10t-69.5 -5t-67.5 -3t-57 -1v119h47q293 0 293 94q0 92 -168 94v117q-172 27 -268 154.5t-96 322.5z" />
<glyph unicode="&#xe8;" horiz-adv-x="909" d="M63 477q0 215 116 346t304 131q104 0 180 -37.5t115 -101t55.5 -131.5t16.5 -141q0 -33 -14.5 -42t-40.5 -9h-578q0 -109 29.5 -186t81 -116.5t108 -57t121.5 -17.5q121 0 168 135q12 27 22.5 35t40.5 8h3q57 0 57 -35q0 -78 -101.5 -173t-240.5 -95q-76 0 -148.5 24.5 t-141.5 77.5t-111 152.5t-42 232.5zM229 604h498q-33 231 -242 232q-29 0 -58.5 -6.5t-71.5 -27t-76 -71.5t-50 -127zM324 1292q0 27 20.5 50.5t48.5 23.5q6 0 10.5 -1t9.5 -2t12 -5t14 -9l21 -16l27 -21l38 -31l49 -39l64 -50l79 -64l-72 -94q-106 66 -254 176 q-39 27 -53 42t-14 40z" />
<glyph unicode="&#xe9;" horiz-adv-x="909" d="M246 1128q270 217 291 230q16 8 34 8q23 0 45.5 -21.5t22.5 -52.5q0 -27 -22.5 -47t-135.5 -98l-86 -60q-39 -31 -78 -53zM63 477q0 215 116 346t304 131q104 0 180 -37.5t115 -101t55.5 -131.5t16.5 -141q0 -33 -14.5 -42t-40.5 -9h-578q0 -109 29.5 -186t81 -116.5 t108 -57t121.5 -17.5q121 0 168 135q12 27 22.5 35t40.5 8h3q57 0 57 -35q0 -78 -101.5 -173t-240.5 -95q-76 0 -148.5 24.5t-141.5 77.5t-111 152.5t-42 232.5zM229 604h498q-33 231 -242 232q-29 0 -58.5 -6.5t-71.5 -27t-76 -71.5t-50 -127z" />
<glyph unicode="&#xea;" horiz-adv-x="909" d="M156 1110l297 266h2l295 -266l-82 -88l-213 217h-2l-215 -217zM63 477q0 215 116 346t304 131q104 0 180 -37.5t115 -101t55.5 -131.5t16.5 -141q0 -33 -14.5 -42t-40.5 -9h-578q0 -109 29.5 -186t81 -116.5t108 -57t121.5 -17.5q121 0 168 135q12 27 22.5 35t40.5 8h3 q57 0 57 -35q0 -78 -101.5 -173t-240.5 -95q-76 0 -148.5 24.5t-141.5 77.5t-111 152.5t-42 232.5zM229 604h498q-33 231 -242 232q-29 0 -58.5 -6.5t-71.5 -27t-76 -71.5t-50 -127z" />
<glyph unicode="&#xeb;" horiz-adv-x="909" d="M147 1290q0 45 32 77t75 32t75.5 -31t32.5 -78q0 -45 -32.5 -75.5t-73.5 -30.5q-47 0 -78 30.5t-31 75.5zM545 1290q0 47 31.5 78t74.5 31q45 0 77 -31t32 -78q0 -45 -33 -75.5t-76 -30.5t-74.5 30.5t-31.5 75.5zM63 477q0 215 116 346t304 131q104 0 180 -37.5t115 -101 t55.5 -131.5t16.5 -141q0 -33 -14.5 -42t-40.5 -9h-578q0 -109 29.5 -186t81 -116.5t108 -57t121.5 -17.5q121 0 168 135q12 27 22.5 35t40.5 8h3q57 0 57 -35q0 -78 -101.5 -173t-240.5 -95q-76 0 -148.5 24.5t-141.5 77.5t-111 152.5t-42 232.5zM229 604h498 q-33 231 -242 232q-29 0 -58.5 -6.5t-71.5 -27t-76 -71.5t-50 -127z" />
<glyph unicode="&#xec;" horiz-adv-x="579" d="M2 1292q0 27 20.5 50.5t49.5 23.5q6 0 10 -1t9 -2t12.5 -5t14.5 -9l20 -16l28 -21l38 -31l48 -39l62 -50l79 -64l-71 -94l-254 176q-2 0 -11 7l-13 10l-14 11q-9 7 -14.5 15.5t-9.5 18.5t-4 20zM61 0v121h170v622q0 41 -21.5 49.5t-107.5 8.5h-32v121l299 28v-829h153 v-121h-461z" />
<glyph unicode="&#xed;" horiz-adv-x="579" d="M150 1128l129 105q123 100 147.5 116.5t48.5 16.5q23 0 45.5 -21.5t22.5 -52.5q0 -27 -22.5 -47t-135.5 -98l-86 -60q-39 -31 -78 -53zM61 0v121h170v622q0 41 -21.5 49.5t-107.5 8.5h-32v121l299 28v-829h153v-121h-461z" />
<glyph unicode="&#xee;" horiz-adv-x="579" d="M2 1108v2l297 266l297 -266v-2l-82 -84h-2l-213 215l-213 -215h-2zM59 0v121h170v622q0 41 -21.5 49.5t-107.5 8.5h-32v121l299 28v-829h153v-121h-461z" />
<glyph unicode="&#xef;" horiz-adv-x="694" d="M49 1290q0 47 33 78t76 31q45 0 75.5 -33t30.5 -74q0 -43 -30.5 -75.5t-75.5 -32.5q-47 0 -78 32.5t-31 73.5zM449 1290q0 43 30.5 76t75.5 33q43 0 76 -31t33 -78q0 -45 -33 -75.5t-74 -30.5q-47 0 -77.5 32.5t-30.5 73.5zM117 0v121h170v622q0 41 -21.5 49.5 t-107.5 8.5h-33v121l299 28v-829h154v-121h-461z" />
<glyph unicode="&#xf0;" d="M63 465q0 227 125 358t320 131q102 0 192 -45q-80 141 -235 273q-154 -88 -168 -88q-16 0 -35.5 34.5t-19.5 49.5q0 10 14 21t94 56q-57 29 -94 43.5t-49 17.5l-28 7l-32 8q-18 8 -18 19q0 14 32 41.5t54 27.5q33 0 115 -29.5t141 -64.5q43 23 84 48.5t58.5 34.5t27.5 9 q16 0 36.5 -33.5t20.5 -50.5q0 -8 -4 -13t-14 -12.5t-20.5 -13.5l-33 -18t-40.5 -25q123 -104 188 -192q182 -244 182 -541v-18q0 -72 -4 -109q-20 -190 -143 -295.5t-299 -105.5q-201 0 -324 129t-123 346zM219 485q0 -113 27.5 -190.5t75 -114.5t92.5 -51t96 -14t96 14 t92 51t75 113t28 182q0 168 -77 264.5t-216 96.5q-141 0 -215 -90.5t-74 -260.5z" />
<glyph unicode="&#xf1;" horiz-adv-x="1148" d="M242 1214q10 14 38 50l38 49q11 14 35 38.5t39.5 36t36 20.5t38.5 9q41 0 108.5 -50t108.5 -50q27 0 55.5 17.5t43.5 33.5l46 51l95 -76l-33 -41l-33 -44q-8 -11 -29.5 -35.5t-34 -34.5l-29.5 -23.5t-33.5 -18.5t-33.5 -5q-43 0 -108.5 50t-106.5 50q-59 0 -147 -102z M57 0v121h170v622q0 39 -22.5 48.5t-106.5 9.5h-41v121l303 28v-137q119 137 299 137q94 0 153.5 -25.5t85.5 -75.5t34 -93t8 -107v-528h170v-121h-483v121h170v522q0 41 -6.5 68.5t-24.5 57.5t-61 45t-109 15q-102 0 -163.5 -73.5t-61.5 -196.5v-438h170v-121h-484z" />
<glyph unicode="&#xf2;" d="M63 465q0 223 123 356t324 133t323.5 -133t122.5 -354t-123.5 -349t-322.5 -128q-201 0 -324 129t-123 346zM217 489q0 -375 293 -374q291 0 291 370q0 350 -291 351q-293 -1 -293 -347zM324 1292q0 27 20.5 50.5t48.5 23.5q6 0 10.5 -1t9.5 -2t12 -5t14 -9l21 -16 l27 -21l38 -31l49 -39l64 -50l79 -64l-72 -94q-106 66 -254 176q-39 27 -53 42t-14 40z" />
<glyph unicode="&#xf3;" d="M303 1128l127 103q121 98 147.5 116.5t49.5 18.5q25 0 47 -21.5t22 -52.5q0 -27 -22.5 -47t-134.5 -98l-86 -60q-70 -49 -78 -53zM63 465q0 223 123 356t324 133t323.5 -133t122.5 -354t-123.5 -349t-322.5 -128q-201 0 -324 129t-123 346zM217 489q0 -375 293 -374 q291 0 291 370q0 350 -291 351q-293 -1 -293 -347z" />
<glyph unicode="&#xf4;" d="M213 1110l297 266h2l295 -266l-82 -88l-213 217h-2l-215 -217zM63 465q0 223 123 356t324 133t323.5 -133t122.5 -354t-123.5 -349t-322.5 -128q-201 0 -324 129t-123 346zM217 489q0 -375 293 -374q291 0 291 370q0 350 -291 351q-293 -1 -293 -347z" />
<glyph unicode="&#xf5;" d="M168 1214q10 14 38 50l39 49q11 14 34.5 38.5t39 36t36 20.5t38.5 9q41 0 108.5 -50t108.5 -50q27 0 55.5 17.5t44.5 33.5l46 51l94 -76l-33 -41l-33 -44q-8 -11 -29.5 -35.5t-33.5 -34.5l-29.5 -23.5t-34 -18.5t-32.5 -5q-43 0 -108.5 50t-106.5 50q-59 0 -148 -102z M63 465q0 223 123 356t324 133t323.5 -133t122.5 -354t-123.5 -349t-322.5 -128q-201 0 -324 129t-123 346zM217 489q0 -375 293 -374q291 0 291 370q0 350 -291 351q-293 -1 -293 -347z" />
<glyph unicode="&#xf6;" d="M205 1290q0 47 31.5 78t74.5 31t76 -31t33 -78q0 -45 -33 -75.5t-74 -30.5q-47 0 -77.5 30.5t-30.5 75.5zM602 1290q0 47 32 78t75 31q45 0 76.5 -31t31.5 -78q0 -45 -32.5 -75.5t-75.5 -30.5t-75 30.5t-32 75.5zM63 465q0 223 123 356t324 133t323.5 -133t122.5 -354 t-123.5 -349t-322.5 -128q-201 0 -324 129t-123 346zM217 489q0 -375 293 -374q291 0 291 370q0 350 -291 351q-293 -1 -293 -347z" />
<glyph unicode="&#xf7;" horiz-adv-x="1593" d="M115 512q0 41 65 41h1231q63 0 63.5 -41t-57.5 -41h-1243q-59 0 -59 41zM664 43q0 55 38.5 93t92 38t92.5 -38t39 -93t-39 -93t-92 -38q-57 0 -94 39t-37 92zM664 981q0 55 38.5 93t92 38t92.5 -37t39 -94q0 -55 -39 -93t-92 -38q-57 0 -94 39t-37 92z" />
<glyph unicode="&#xf8;" d="M74 465q0 225 120.5 357t315.5 132q86 0 180 -34l137 247h2l103 -59l-139 -252q156 -143 155 -391q0 -219 -120.5 -347t-315.5 -128q-94 0 -180 33l-137 -250l-105 57l139 254q-155 137 -155 381zM209 465q0 -176 82 -270l342 618q-63 23 -123 23q-53 0 -99 -14.5 t-95.5 -50.5t-78 -114.5t-28.5 -191.5zM391 129q66 -20 121 -20q51 0 95 12t94.5 46t80 109.5t29.5 186.5q0 176 -78 282h-2z" />
<glyph unicode="&#xf9;" horiz-adv-x="1148" d="M57 801v121l314 28v-671q0 -96 30.5 -133t141.5 -37q96 0 175 61t79 205v360q0 47 -17.5 56.5t-105.5 9.5h-47v121l313 28v-749q0 -49 8 -62.5t49 -15.5q27 -2 82 -2h31v-121l-307 -10v133q-133 -133 -334 -133q-66 0 -113 18.5t-71.5 44t-38 67.5t-16.5 72.5t-3 75.5 v469q0 45 -20.5 54.5t-108.5 9.5h-41zM369 1292q0 27 20.5 50.5t48.5 23.5q6 0 10.5 -1t9.5 -2t12 -5t14 -9l21 -16l27 -21l38 -31l50 -39l63 -50l79 -64l-72 -94q-106 66 -254 176q-39 27 -53 42t-14 40z" />
<glyph unicode="&#xfa;" horiz-adv-x="1148" d="M377 1128l129 105q123 100 147.5 116.5t48.5 16.5q23 0 45.5 -21.5t22.5 -52.5q0 -27 -22.5 -47t-135.5 -98l-86 -60q-39 -31 -77 -53zM57 801v121l314 28v-671q0 -96 30.5 -133t141.5 -37q96 0 175 61t79 205v360q0 47 -17.5 56.5t-105.5 9.5h-47v121l313 28v-749 q0 -49 8 -62.5t49 -15.5q27 -2 82 -2h31v-121l-307 -10v133q-133 -133 -334 -133q-66 0 -113 18.5t-71.5 44t-38 67.5t-16.5 72.5t-3 75.5v469q0 45 -20.5 54.5t-108.5 9.5h-41z" />
<glyph unicode="&#xfb;" horiz-adv-x="1148" d="M287 1110l297 266h2l295 -266l-82 -86h-2l-211 215h-2l-213 -215h-2zM57 801v121l314 28v-671q0 -96 30.5 -133t141.5 -37q96 0 175 61t79 205v360q0 47 -17.5 56.5t-105.5 9.5h-47v121l313 28v-749q0 -49 8 -62.5t49 -15.5q27 -2 82 -2h31v-121l-307 -10v133 q-133 -133 -334 -133q-66 0 -113 18.5t-71.5 44t-38 67.5t-16.5 72.5t-3 75.5v469q0 45 -20.5 54.5t-108.5 9.5h-41z" />
<glyph unicode="&#xfc;" horiz-adv-x="1148" d="M276 1290q0 43 31 76t78 33q43 0 75 -31t32 -78q0 -45 -33 -75.5t-74 -30.5q-45 0 -77 32.5t-32 73.5zM676 1290q0 47 31.5 78t74.5 31q45 0 77 -33t32 -74q0 -43 -31 -75.5t-78 -32.5t-76.5 30.5t-29.5 75.5zM57 801v121l314 28v-671q0 -96 30.5 -133t141.5 -37 q96 0 175 61t79 205v360q0 47 -17.5 56.5t-105.5 9.5h-47v121l313 28v-749q0 -49 8 -62.5t49 -15.5q27 -2 82 -2h31v-121l-307 -10v133q-133 -133 -334 -133q-66 0 -113 18.5t-71.5 44t-38 67.5t-16.5 72.5t-3 75.5v469q0 45 -20.5 54.5t-108.5 9.5h-41z" />
<glyph unicode="&#xfd;" horiz-adv-x="1091" d="M453 1128l127 103q121 98 147.5 116.5t48.5 18.5q25 0 47.5 -21.5t22.5 -52.5q0 -27 -22.5 -47t-135.5 -98l-86 -60q-70 -49 -78 -53zM41 819v119h432v-119h-137q14 -37 107.5 -307t109.5 -340l84 256l135 391h-137v119h416v-119h-158l-315 -899q-20 -61 -36 -97 t-47.5 -83t-76.5 -82q-84 -68 -185 -68q-74 0 -130 43t-56 107q0 35 22.5 57.5t55.5 22.5t56.5 -21.5t23.5 -58.5q0 -10 -4 -27q10 -2 28 -2q115 0 183 103q18 29 43.5 100.5t25.5 85.5q0 16 -10 37l-272 782h-158z" />
<glyph unicode="&#xfe;" horiz-adv-x="1148" d="M49 -279h170v1506q0 41 -21.5 49t-113.5 8h-35v121l307 29v-598q162 113 375 112q164 0 252 -132t88 -343q0 -223 -106.5 -353t-282.5 -130q-178 0 -320 123v-392h170v-120h-483v120zM362 334q0 -76 74 -150.5t180 -74.5q121 0 210 91t89 269q0 150 -71.5 252t-210.5 102 q-96 0 -183.5 -53t-87.5 -133v-303z" />
<glyph unicode="&#xff;" horiz-adv-x="1091" d="M240 1290q0 43 30.5 76t75.5 33t77 -31t32 -78q0 -45 -32 -75.5t-75 -30.5q-45 0 -76.5 32.5t-31.5 73.5zM637 1290q0 45 31.5 77t74.5 32q47 0 78 -33t31 -74q0 -43 -30.5 -75.5t-76.5 -32.5q-47 0 -77.5 31.5t-30.5 74.5zM41 819v119h432v-119h-137q14 -37 107.5 -307 t109.5 -340l84 256l135 391h-137v119h416v-119h-158l-315 -899q-20 -61 -36 -97t-47.5 -83t-76.5 -82q-84 -68 -185 -68q-74 0 -130 43t-56 107q0 35 22.5 57.5t55.5 22.5t56.5 -21.5t23.5 -58.5q0 -10 -4 -27q10 -2 28 -2q115 0 183 103q18 29 43.5 100.5t25.5 85.5 q0 16 -10 37l-272 782h-158z" />
<glyph unicode="&#x152;" horiz-adv-x="2064" d="M129 692q0 330 186.5 529.5t493.5 199.5q51 0 150.5 -11t179.5 -11h753l58 -518h-121q-31 274 -46.5 325t-66.5 62q-78 12 -258 12h-270v-494h178q178 0 210 9.5t36 66.5v10q4 43 4 132v22h121v-598h-121v23q0 139 -8.5 171.5t-44.5 36.5q-43 6 -215 7h-160v-545h289 q156 0 224 7t87.5 20.5t30.5 50.5q14 55 67 385h119l-84 -584h-782q-80 0 -178.5 -11.5t-151.5 -11.5q-305 0 -492.5 195.5t-187.5 519.5zM285 725q0 -287 145 -457t387 -170q55 0 92 7.5t62.5 32t39 50t20.5 85t8 110.5t1 152v339q0 264 -34.5 346.5t-186.5 82.5 q-246 0 -390 -156t-144 -422z" />
<glyph unicode="&#x153;" horiz-adv-x="1593" d="M63 475q0 219 119 349t312 130q227 0 356 -190q119 190 344 190q96 0 166 -37.5t105.5 -100t52 -129t16.5 -138.5q0 -27 -8 -40t-17.5 -15t-29.5 -2h-555q0 -115 33.5 -195t90 -117t108.5 -51t110 -14q88 0 133 104l10 29l8 21q2 5 9.5 12.5t17.5 9.5t29 2q57 0 57 -35 q0 -23 -18.5 -63.5t-53.5 -88t-99.5 -82t-141.5 -34.5q-236 0 -365 196q-115 -197 -358 -196q-176 0 -303.5 122.5t-127.5 362.5zM207 483q0 -113 27.5 -191.5t73.5 -115.5t91 -52t94.5 -15t93.5 15t90 52t73.5 117t27.5 194q0 104 -27.5 178t-72.5 108t-90 48.5t-94 14.5 q-127 0 -207 -83.5t-80 -269.5zM934 604h475q-25 231 -217 232q-27 0 -55.5 -6.5t-72.5 -27t-79 -71.5t-51 -127z" />
<glyph unicode="&#x178;" horiz-adv-x="1513" d="M449 1665q0 47 32.5 78t73.5 31q45 0 77 -31t32 -78q0 -45 -33 -75.5t-74 -30.5q-47 0 -77.5 31.5t-30.5 74.5zM848 1665q0 45 31.5 77t74.5 32t76 -31t33 -78q0 -45 -34 -75.5t-75 -30.5q-45 0 -75.5 32.5t-30.5 73.5zM31 1280v119h483v-119h-119l377 -588l377 588h-119 v119h451v-119h-189l-440 -686q-23 -37 -23 -74v-399h183v-121h-512v121h182v383q0 53 -23 90l-440 686h-188z" />
<glyph unicode="&#x2c6;" d="M215 1110l297 266l297 -266l-82 -88l-215 217l-215 -217z" />
<glyph unicode="&#x2dc;" d="M170 1219q10 14 38 49l39 49q11 14 34.5 38.5t39 36t36 20.5t38.5 9q43 0 108.5 -50t108.5 -50q27 0 55.5 17.5t44.5 33.5l46 51l94 -75l-33 -42l-33 -43q-8 -11 -29.5 -36t-33.5 -35l-29.5 -23.5t-34 -18.5t-32.5 -5q-41 0 -106.5 50t-108.5 50q-59 0 -148 -102z" />
<glyph unicode="&#x2000;" horiz-adv-x="919" />
<glyph unicode="&#x2001;" horiz-adv-x="1841" />
<glyph unicode="&#x2002;" horiz-adv-x="919" />
<glyph unicode="&#x2003;" horiz-adv-x="1841" />
<glyph unicode="&#x2004;" horiz-adv-x="612" />
<glyph unicode="&#x2005;" horiz-adv-x="458" />
<glyph unicode="&#x2006;" horiz-adv-x="305" />
<glyph unicode="&#x2007;" horiz-adv-x="305" />
<glyph unicode="&#x2008;" horiz-adv-x="229" />
<glyph unicode="&#x2009;" horiz-adv-x="366" />
<glyph unicode="&#x200a;" horiz-adv-x="100" />
<glyph unicode="&#x2010;" horiz-adv-x="681" d="M20 399v140h545v-140h-545z" />
<glyph unicode="&#x2011;" horiz-adv-x="681" d="M20 399v140h545v-140h-545z" />
<glyph unicode="&#x2012;" horiz-adv-x="681" d="M20 399v140h545v-140h-545z" />
<glyph unicode="&#x2013;" d="M0 520v119h1024v-119h-1024z" />
<glyph unicode="&#x2014;" horiz-adv-x="2048" d="M0 520v119h2048v-119h-2048z" />
<glyph unicode="&#x2018;" horiz-adv-x="569" d="M145 1036q0 98 36 192.5t73 141.5t53 47q18 0 46 -29.5t28 -44.5q0 -8 -28.5 -43.5t-57.5 -107.5t-29 -168h13q59 0 85.5 -35t26.5 -74q0 -47 -31.5 -77.5t-76.5 -30.5q-74 0 -106 69.5t-32 159.5z" />
<glyph unicode="&#x2019;" horiz-adv-x="569" d="M174 1315q0 45 31 75.5t78 30.5q74 0 105.5 -69.5t31.5 -157.5q0 -100 -36 -193.5t-73 -140.5t-53 -47q-18 0 -46 28.5t-28 43.5q0 8 29 46t57.5 109.5t28.5 165.5h-12q-59 0 -86 35t-27 74z" />
<glyph unicode="&#x201a;" horiz-adv-x="569" d="M174 109q0 45 31 75.5t78 30.5q72 0 101.5 -67.5t29.5 -159.5q0 -90 -32 -182.5t-69 -144.5t-57 -52q-14 0 -43 27.5t-29 44.5q0 8 28 45.5t54.5 109.5t26.5 164q-47 2 -76 23.5t-36 42t-7 43.5z" />
<glyph unicode="&#x201c;" horiz-adv-x="681" d="M420 1036q0 98 36 192.5t72.5 141.5t53.5 47q18 0 45.5 -29.5t27.5 -44.5q0 -8 -28.5 -43.5t-57 -107.5t-28.5 -168h12q59 0 86 -35t27 -74q0 -47 -32 -77.5t-77 -30.5q-74 0 -105.5 69.5t-31.5 159.5zM-10 1036q0 98 35.5 192.5t72.5 141.5t54 47q18 0 45.5 -29.5 t27.5 -44.5q0 -8 -28.5 -43.5t-57 -107.5t-28.5 -168h12q59 0 86 -35t27 -74q0 -47 -32 -77.5t-77 -30.5q-74 0 -105.5 69.5t-31.5 159.5z" />
<glyph unicode="&#x201d;" horiz-adv-x="681" d="M446 1315q0 45 31 75.5t78 30.5q74 0 105.5 -69.5t31.5 -157.5q0 -100 -35.5 -193.5t-72.5 -140.5t-54 -47q-18 0 -45.5 28.5t-27.5 43.5q0 8 28.5 46t57 109.5t28.5 165.5h-12q-59 0 -86 35t-27 74zM16 1315q0 45 31 75.5t78 30.5q74 0 105.5 -69.5t31.5 -157.5 q0 -100 -36 -193.5t-72.5 -140.5t-53.5 -47q-18 0 -45.5 28.5t-27.5 43.5q0 8 28.5 46t57 109.5t28.5 165.5h-12q-59 0 -86 35t-27 74z" />
<glyph unicode="&#x201e;" horiz-adv-x="681" d="M446 109q0 45 31 75.5t78 30.5q74 0 105.5 -69.5t31.5 -157.5q0 -100 -35.5 -193.5t-72.5 -140.5t-54 -47q-18 0 -45.5 28.5t-27.5 42.5q0 8 28.5 46t57 110t28.5 166h-12q-59 0 -86 35t-27 74zM16 109q0 45 31 75.5t78 30.5q74 0 105.5 -69.5t31.5 -157.5 q0 -100 -36 -193.5t-72.5 -140.5t-53.5 -47q-18 0 -45.5 28.5t-27.5 42.5q0 8 28.5 46t57 110t28.5 166h-12q-59 0 -86 35t-27 74z" />
<glyph unicode="&#x2022;" d="M113 514q0 176 109.5 286.5t289.5 110.5q178 0 287.5 -110.5t109.5 -290.5q0 -176 -109.5 -286.5t-289.5 -110.5q-176 0 -286.5 110.5t-110.5 290.5z" />
<glyph unicode="&#x2026;" horiz-adv-x="1708" d="M174 109q0 41 32 73.5t77 32.5t76.5 -31.5t31.5 -74.5t-31.5 -76t-76.5 -33q-47 0 -78 33t-31 76zM743 109q0 41 32 73.5t77 32.5t77 -31.5t32 -74.5t-32 -76t-77 -33q-47 0 -78 33t-31 76zM1313 109q0 41 31.5 73.5t76.5 32.5t77 -31.5t32 -74.5t-32 -76t-77 -33 q-47 0 -77.5 33t-30.5 76z" />
<glyph unicode="&#x202f;" horiz-adv-x="366" />
<glyph unicode="&#x2039;" horiz-adv-x="909" d="M231 524q0 6 3.5 11.5t11.5 14.5t19 20l33 34q22 23 44 51q78 94 127 179.5t60.5 126t28.5 63.5t48 23h33q37 0 37 -21q0 -35 -63.5 -164t-151.5 -241q-39 -49 -86 -99q125 -129 213 -291.5t88 -212.5q0 -18 -39 -18h-27q-14 0 -22 2t-14.5 3t-11.5 11.5t-9 17.5 t-12.5 28.5t-16.5 37.5q-57 125 -131 224.5t-118 143.5t-44 56z" />
<glyph unicode="&#x203a;" horiz-adv-x="909" d="M229 23q0 33 64.5 161.5t152.5 241.5q35 47 84 98q-127 129 -214 292t-87 212q0 18 37 19h31q18 0 26.5 -1.5t16.5 -9.5t11 -14t12.5 -30.5l17.5 -43.5q57 -125 131 -224t118 -144t44 -56q0 -6 -3 -11t-11.5 -14.5t-19.5 -20.5t-32 -35l-45 -52q-72 -88 -122 -178 t-72.5 -143.5t-28.5 -59.5q-10 -10 -41 -10h-25q-45 0 -45 23z" />
<glyph unicode="&#x205f;" horiz-adv-x="458" />
<glyph unicode="&#x20ac;" horiz-adv-x="1478" d="M4 549q0 12 16.5 50t30.5 46q12 6 25 6h155q-2 16 -2 49q0 31 2 48h-186q-41 0 -41 22q0 12 16.5 50t30.5 46q8 4 27 4h172q59 231 247.5 380t430.5 149q121 0 239.5 -45t179 -92.5t60.5 -67.5q0 -23 -20.5 -67t-36.5 -44q-8 0 -41 27t-78 59.5t-127 59t-176 26.5 q-92 0 -184.5 -29.5t-192.5 -120.5t-152 -235h818q41 0 40 -20q0 -12 -17 -49t-27.5 -45t-45.5 -8h-792l-2 -48l2 -49h745q39 -2 39 -20q0 -8 -12 -41q-20 -45 -28.5 -53.5t-39.5 -8.5h-680q68 -195 217.5 -290t313.5 -95q76 0 146.5 16.5t122.5 42t89 48t63.5 45t28.5 22.5 q18 10 25.5 -2t7.5 -30v-21v-37q0 -25 -13.5 -43t-66.5 -55q-178 -129 -405 -129q-236 0 -426.5 144.5t-251.5 383.5h-174q-4 0 -13.5 -1t-15.5 -1q-43 0 -43 23z" />
<glyph unicode="&#x2122;" horiz-adv-x="1366" d="M2 1477q0 23 17.5 41t60.5 18h512q88 0 88 -59.5t-76 -61.5h-203v-579q0 -31 -4 -45q-4 -18 -20.5 -30.5t-34.5 -12.5q-43 0 -57 43q-4 14 -4 45v579h-201q-78 3 -78 62zM737 819v660q0 78 58 77q18 0 32.5 -10t23.5 -24.5t23 -42.5l7 -13l143 -268q8 14 51 97l81 153 q38 70 42 76q23 33 53 32q61 0 62 -83q0 -6 -1 -14.5t-1 -14.5v-621q0 -76 -59.5 -75.5t-59.5 77.5v379q0 35 -2 51q-59 -121 -91 -174t-43.5 -62t-31.5 -9q-35 0 -72 63l-96 182v-426q0 -82 -61 -81q-20 0 -39 16t-19 55z" />
<glyph unicode="&#xe000;" horiz-adv-x="940" d="M0 940h940v-940h-940v940z" />
<glyph unicode="&#xfb01;" horiz-adv-x="1142" d="M43 0v121h170v698h-160v119h160v166q0 92 52 158.5t118 98.5t154 50.5t129 20.5t73 2h11q49 0 82.5 -21.5t48 -55.5t19.5 -58.5t5 -45.5q0 -49 -28.5 -70.5t-59.5 -21.5q-37 0 -61.5 24.5t-24.5 61.5q0 12 14 51q-45 14 -104 15q-102 0 -168.5 -26.5t-90.5 -71t-30 -70 t-6 -55.5v-152h266v14l308 11v-842h170v-121h-478v121h170v657q0 23 -7 32t-38 9h-387v-698h172v-121h-479z" />
<glyph unicode="&#xfb02;" horiz-adv-x="1142" d="M43 0v121h170v698h-160v119h160v166q0 94 51 161.5t135 102.5t170 50.5t179 15.5q55 0 98 -27l74 16v-1302h170v-121h-478v121h170v698h-432v-698h172v-121h-479zM346 938h436v293q-41 33 -43 80q-25 2 -75 2q-172 0 -245 -56.5t-73 -162.5v-156z" />
<glyph unicode="&#xfb03;" horiz-adv-x="1712" d="M43 0v121h170v698h-160v119h160v172q0 147 145.5 235.5t389.5 88.5q102 0 143 -113q160 113 428 113q49 0 83 -21.5t48 -55.5t19.5 -58.5t5.5 -45.5q0 -49 -28 -70.5t-58 -21.5q-37 0 -63 24.5t-26 61.5q0 18 13 51q-43 14 -103 15q-102 0 -169.5 -26.5t-91 -71t-30 -70 t-6.5 -55.5v-152h267v14l309 11v-842h170v-121h-479v121h172v657q0 16 -2 23.5t-12.5 12.5t-32.5 5h-385v-698h170v-121h-478v121h170v698h-432v-698h172v-121h-479zM346 938h436v121l4 104q-59 29 -59 84q0 23 12 51q-43 14 -100 15q-82 0 -142.5 -19.5t-88 -44t-43 -61.5 t-17.5 -55.5t-2 -40.5v-154z" />
<glyph unicode="&#xfb04;" horiz-adv-x="1712" d="M43 0v121h170v698h-160v119h160v166q0 94 52 162.5t136 102.5t169 49.5t173 15.5h2q113 0 148 -111q160 111 418 111q59 0 104 -27l74 16v-1302h170v-121h-479v121h172v698h-432v-698h170v-121h-478v121h170v698h-432v-698h172v-121h-479zM346 938h436v119q0 98 15 143 q-55 31 -56 80q0 16 2 27q-6 6 -92 6q-305 0 -305 -219v-156zM913 938h439v293q-43 35 -43 80q-23 2 -68 2h-24q-303 0 -304 -219v-156z" />
</font>
</defs>
</svg>
