<?xml version="1.0" standalone="no"?>
<!DOCTYPE svg PUBLIC "-//W3C//DTD SVG 1.1//EN" "http://www.w3.org/Graphics/SVG/1.1/DTD/svg11.dtd" >
<svg xmlns="http://www.w3.org/2000/svg">
<metadata>
This is a custom SVG webfont generated by Font Squirrel.
Copyright   : Converted by Andrey V Panov from TeX fonts
</metadata>
<defs>
<font id="webfontUy6UKuoY" horiz-adv-x="1177" >
<font-face units-per-em="2048" ascent="1638" descent="-410" />
<missing-glyph horiz-adv-x="784" />
<glyph unicode=" "  horiz-adv-x="784" />
<glyph unicode="&#x09;" horiz-adv-x="784" />
<glyph unicode="&#xa0;" horiz-adv-x="784" />
<glyph unicode="!" horiz-adv-x="739" d="M231 137q0 53 40 94t98 41q53 0 94 -38.5t41 -96.5q0 -59 -40 -98t-95 -39q-57 0 -97.5 41t-40.5 96zM231 1307q0 70 44 103.5t94 33.5q53 0 94 -36t41 -99q0 -23 -4 -68l-51 -741q-4 -41 -12.5 -51.5t-41.5 -10.5h-47q-33 0 -45 7.5t-14 35.5l-51 750q-7 74 -7 76z" />
<glyph unicode="&#x22;" d="M287 1329q0 59 32.5 85t69.5 26q41 0 74 -27t33 -86l-27 -510h-156q-4 70 -10 198t-11 217t-5 97zM680 1327q0 61 34 87t72.5 26t71.5 -25.5t33 -85.5q0 -8 -5 -98l-13 -216l-11 -198h-153q-29 485 -29 510z" />
<glyph unicode="#" horiz-adv-x="1961" d="M131 268q0 31 20.5 54.5t71.5 23.5h369l100 330h-454q-39 0 -58 6q-49 18 -49 72q0 78 98 77h512q6 23 37 125l69 225q38 122 48 158l2 9l7 17q3 7 10.5 18.5t15.5 19.5t20.5 13t28.5 5q31 0 53.5 -23.5t22.5 -51.5q0 -16 -15 -64l-137 -451h350q6 23 37 125l69 225 q38 122 48 158l2 9l7 17q3 7 10.5 18.5t15.5 19.5t20.5 13t28.5 5q31 0 53.5 -23.5t22.5 -51.5q0 -14 -63 -223l-89 -292h301q33 0 49 -2q25 -4 44.5 -25.5t19.5 -50t-20.5 -53t-71.5 -24.5h-371l-100 -330h456q43 0 56 -4q51 -20 51 -74q0 -76 -98 -75h-514 q-10 -45 -156 -515q-25 -76 -80 -75q-35 0 -56.5 23.5t-21.5 49.5q0 18 24 97l63 204q40 127 65 216h-350q-51 -186 -156 -517q-23 -74 -80 -73q-35 0 -56.5 23.5t-21.5 49.5q0 18 24 97l63 204q40 127 65 216h-299q-41 0 -49 2q-27 4 -45.5 24t-18.5 49zM754 346h350 l100 330h-350z" />
<glyph unicode="$" d="M129 393q0 61 34 88t73 27q41 0 72.5 -29.5t31.5 -75t-43 -88.5q51 -137 213 -165v505q-172 33 -276.5 136.5t-104.5 252.5q0 152 102.5 258.5t278.5 127.5v106h154v-106q119 -16 201.5 -61.5t117.5 -106t48 -108.5t13 -97q0 -59 -33.5 -86t-70.5 -27q-45 0 -75.5 28.5 t-30.5 76.5q0 43 43 86q-59 115 -213 139v-449q188 -35 284 -155.5t96 -261.5q0 -37 -6 -77t-29.5 -97.5t-62.5 -102.5t-111.5 -84t-170.5 -53v-107h-154v107q-119 14 -201 63t-117.5 116t-49 119t-13.5 101zM299 1067q0 -68 54.5 -126t156.5 -81v414q-88 -18 -139.5 -62.5 t-61.5 -78t-10 -66.5zM664 150q70 16 116.5 47.5t64 71.5t23.5 64.5t6 49.5q0 78 -52 144.5t-156 93.5l-2 -72v-399z" />
<glyph unicode="%" horiz-adv-x="1961" d="M129 1124q0 195 95 303.5t237 108.5q43 0 78.5 -10t57 -21.5t60.5 -37t68 -40.5q193 -104 387 -104q227 0 379 152l12 14q10 14 17.5 21.5t21.5 15.5t29 8q63 0 61 -78q12 -16 13 -24q0 -35 -103 -119q-6 -4 -14 -10q-31 -23 -70 -76q-6 -6 -16 -21l-96 -125l-895 -1153 q-35 -41 -64 -41q-23 0 -41 18.5t-18 43t57 96.5l889 1145q-102 -12 -152 -12q-158 0 -348 67q10 -66 10 -123q0 -186 -90 -298.5t-233 -112.5q-55 0 -108.5 20.5t-105.5 64.5t-85 128.5t-33 199.5zM303 1114q0 -248 158 -248q68 0 122 60.5t54 197.5q0 135 -54.5 195.5 t-121.5 60.5q-51 0 -85 -23.5t-48.5 -67.5t-19.5 -83t-5 -92zM1176 301q0 193 95 301.5t236 108.5q53 0 105.5 -20.5t102.5 -63.5t82 -128t32 -200q0 -199 -92 -305.5t-228 -106.5q-133 0 -233 102.5t-100 311.5zM1350 289q0 -248 157 -248q66 0 121 60.5t55 197.5 q0 135 -55 195.5t-121 60.5q-68 0 -104.5 -45t-44.5 -96t-8 -125z" />
<glyph unicode="&#x26;" horiz-adv-x="1837" d="M96 328q0 31 5 58.5t16.5 52t22 44t27.5 40t29.5 32.5t32.5 29l29 22q8 6 27 19l18 12q10 6 61 41l76 53q-68 186 -67 330q0 162 100 272.5t240 110.5q129 0 205.5 -100.5t76.5 -221.5q0 -201 -338 -426q102 -186 316 -383l57 63l45 51q18 22 43 56.5l36 49t40 60.5 l38 60l48 77l51 83h-149v154h530v-154h-221q-229 -393 -416 -580q156 -100 293 -100q168 0 184 123h148q-6 -131 -103.5 -205t-234.5 -74q-102 0 -199.5 34t-155 68t-63.5 34q-8 0 -63.5 -34t-151.5 -68t-203 -34q-178 0 -304 99.5t-126 251.5zM297 346q0 -94 84 -153.5 t201 -59.5q119 0 252 72q-199 172 -324 385h-4q-12 -10 -50 -36l-53 -36q-14 -10 -40.5 -33.5t-37 -41t-19.5 -43t-9 -54.5zM539 1106q0 -119 51 -268q29 18 60 43l83 67q51 43 83 90t32 86q0 59 -37 112.5t-100 53.5q-61 0 -116.5 -46t-55.5 -138z" />
<glyph unicode="'" horiz-adv-x="653" d="M219 1327q0 61 34 87t73 26t71.5 -27t32.5 -86q0 -6 -5 -95t-11 -216t-11 -199h-155q-29 475 -29 510z" />
<glyph unicode="(" horiz-adv-x="915" d="M184 512q0 317 113 575.5t311 419.5q39 29 70 29h59q43 0 43 -23q0 -12 -37.5 -44.5t-106.5 -111.5t-124 -186q-147 -287 -147 -659q0 -610 370 -950q8 -4 26.5 -22.5t18.5 -31.5q0 -20 -45 -20h-55q-37 0 -70 27q-215 172 -320.5 436t-105.5 561z" />
<glyph unicode=")" horiz-adv-x="915" d="M133 -489q0 12 37 43.5t104.5 107.5t122.5 182q152 289 152 664q0 164 -28.5 311.5t-69.5 245.5t-95.5 184t-94.5 129t-79 80l-39 35q-10 12 -10 20q0 23 37 23h63q37 0 70 -27q215 -172 320.5 -436t105.5 -561t-105.5 -561t-320.5 -436q-35 -29 -70 -29q-6 0 -14 1 t-12 1h-31q-43 0 -43 23z" />
<glyph unicode="*" d="M154 852q0 12 2 22.5t9 18.5t11 13t17.5 13.5l16.5 10.5t20.5 10t19.5 8l223 105q-33 12 -254 118q-66 31 -65 80q0 35 23.5 59.5t53.5 24.5h7q14 0 35.5 -13t115.5 -77l141 -96l-12 147q-6 72 -9 105t-3 51q0 45 26.5 63.5t53.5 18.5q29 0 55.5 -19.5t26.5 -62.5 q0 -2 -25 -303q260 176 279 182q8 4 16 4q33 0 58.5 -24.5t25.5 -59.5q0 -16 -4 -28.5t-19 -23.5l-19 -15q-5 -4 -28.5 -14.5t-25.5 -12.5l-224 -104q18 -8 252 -119q68 -31 68 -80q0 -35 -24.5 -59.5t-55.5 -24.5h-6q-16 0 -44 16.5t-153 102.5l-96 65l12 -146 q6 -73 9.5 -105.5t3.5 -51.5q0 -45 -28 -63.5t-52 -18.5q-27 0 -54.5 19.5t-27.5 64.5q0 14 3 45t9 101.5t12 154.5q-256 -174 -276 -182q-10 -2 -18 -2q-33 0 -57.5 24.5t-24.5 57.5z" />
<glyph unicode="+" horiz-adv-x="1830" d="M131 512q0 78 98 78h609v598q0 109 77 108q76 -2 76 -108v-598h598q109 0 109 -78q0 -53 -51 -72q-18 -6 -56 -6h-600v-598q0 -109 -76 -108q-78 0 -77 98v608h-600q-107 0 -107 78z" />
<glyph unicode="," horiz-adv-x="653" d="M188 137q0 57 38 96t98 39q74 0 118.5 -68.5t44.5 -185.5q0 -104 -39.5 -205.5t-82.5 -153.5t-66 -52q-18 0 -57 40t-39 56q0 8 29.5 43t62.5 102.5t37 151.5q-76 2 -110 46t-34 91z" />
<glyph unicode="-" horiz-adv-x="784" d="M25 393v180h626v-180h-626z" />
<glyph unicode="." horiz-adv-x="653" d="M188 137q0 57 42 96t95.5 39t94.5 -38.5t41 -96t-41 -97.5t-94 -40q-59 0 -98.5 41t-39.5 96z" />
<glyph unicode="/" d="M131 -434q0 12 19 67l727 1807q35 94 92 94q31 0 53 -22.5t22 -53.5q0 -14 -16 -57l-729 -1811q0 -2 -7 -18l-10 -24q-3 -7 -11.5 -20t-15.5 -19.5t-20.5 -12.5t-27.5 -6q-31 0 -53.5 22.5t-22.5 53.5z" />
<glyph unicode="0" d="M90 637v63q0 428 146 598q123 145 350 146q207 0 317 -111q57 -49 98 -135q61 -123 76 -301q6 -63 6 -195v-110q-8 -125 -14 -156q-35 -221 -147 -334q-61 -63 -153.5 -94t-180.5 -31q-68 0 -139 17q-111 31 -179 92q-63 53 -112 162q-60 137 -68 389zM291 668 q0 -344 96 -451q78 -84 201 -84q170 0 233.5 139.5t63.5 403.5v104q0 258 -64.5 384t-232.5 126q-72 0 -124 -21.5t-84 -67.5t-50.5 -87t-26.5 -113.5t-10 -110.5t-2 -112v-110z" />
<glyph unicode="1" d="M215 1147v156q117 2 200 24.5t115.5 48t63.5 47t55 21.5h10q35 0 43.5 -17.5t8.5 -50.5v-1222h293v-154h-777v154h295v1063q-131 -66 -307 -70z" />
<glyph unicode="2" d="M117 0v106q0 33 28 62l344 311q10 8 67.5 57.5l80.5 70.5l71 71q48 49 70.5 84t46 85t29.5 97q2 14 2 45q0 143 -116.5 222t-264.5 79q-131 0 -188 -141q47 -41 47 -92q0 -47 -32 -78t-77 -31q-39 0 -73.5 28t-34.5 89q0 150 126 264.5t314 114.5q211 0 356.5 -125 t145.5 -324q0 -63 -20.5 -122.5t-45 -101.5t-81 -97.5t-94.5 -86.5l-118 -95q-61 -49 -348 -297h416l106 2q12 37 31 155h154l-51 -352h-891z" />
<glyph unicode="3" d="M96 309q0 63 36 90t75 27q47 0 78.5 -30.5t31.5 -80t-36 -86.5v-4q104 -104 301 -104q158 0 224 84t66 198q0 287 -311 287h-96q-51 0 -62.5 8.5t-11.5 44.5v25l-2 6v14q0 37 12.5 47.5t99.5 14.5t134 24q74 29 126 96.5t52 157.5q0 74 -49 129.5t-182 55.5h-2 q-145 -2 -230 -64v-2q29 -39 29 -76q0 -47 -32 -76.5t-77 -29.5q-47 0 -77.5 30.5t-30.5 82.5q0 119 117.5 192.5t304.5 73.5h2q119 0 207 -31t133 -81t65.5 -101t20.5 -105q0 -80 -31 -150.5t-79 -115.5t-71.5 -62.5t-46.5 -29.5q145 -43 219 -142.5t74 -222.5 q0 -170 -124 -298t-367 -128q-207 0 -348.5 93.5t-141.5 238.5z" />
<glyph unicode="4" d="M63 379v123q0 31 25 67l557 793q31 41 43 51t45 10h74q37 0 52 -11t15 -50v-827h236v-156h-236v-225h230v-154h-641v154h227v225h-627zM248 535h454v741q-8 -45 -36.5 -104.5t-103.5 -173.5l-127 -190z" />
<glyph unicode="5" d="M117 311q0 53 30.5 83t75.5 30t77 -29.5t32 -77.5q0 -45 -37 -81q80 -115 252 -115q311 0 311 319q0 305 -248 305q-72 0 -126 -19t-78.5 -43t-46 -48.5t-31.5 -28.5q-10 -6 -58 -6h-10q-18 0 -28.5 1t-19.5 8t-12 20.5t-3 38.5v712q0 61 24 62q8 0 55.5 -16.5t129 -34 t176.5 -17.5q98 0 178 17.5t125 34t55 16.5q27 0 27 -58v-47q0 -29 -8.5 -38t-43.5 -23q-193 -80 -403 -80q-80 0 -160 12v-389q125 82 264 82q199 0 321 -127t122 -334q0 -211 -141.5 -337t-366.5 -126q-190 0 -312 99.5t-122 234.5z" />
<glyph unicode="6" d="M96 707q0 164 41 296t104.5 211.5t147.5 134t164 75t162 20.5q145 0 224 -67.5t79 -172.5q0 -57 -33 -84.5t-72 -27.5q-43 0 -74.5 29.5t-31.5 74.5q0 37 29 76v2q-55 39 -121 39q-186 0 -300 -143.5t-114 -389.5q147 184 393 185q174 0 279 -136q61 -78 82.5 -159.5 t21.5 -196.5q0 -135 -36.5 -219t-108.5 -152q-125 -125 -338 -125q-236 0 -363 170q-135 179 -135 560zM307 512q0 -70 13.5 -133.5t43 -124.5t89 -97t141.5 -36q145 0 217 92q63 78 63 240q0 6 1.5 18t1.5 18q0 178 -82 259q-66 63 -191 63q-127 0 -212 -87t-85 -212z" />
<glyph unicode="7" d="M129 1069l59 406h154q6 -33 20.5 -42.5t47.5 -9.5h34q4 0 26 -1t76 -1h138h53q68 0 203 1t203 1v-96q0 -39 -39 -84q-281 -356 -285 -362q-78 -113 -123 -259.5t-54 -255t-12 -206t-7 -109.5q-25 -74 -101 -74q-41 0 -73.5 29t-32.5 94q8 477 270 836l14 18l25 32l37 47 l63 79l93 117h-488l-117 -2q-12 -39 -30 -158h-154z" />
<glyph unicode="8" d="M96 367q0 86 28 155.5t81 119.5t90 74.5t92 55.5q-225 125 -225 322q0 158 115.5 255t308.5 97q180 0 303 -85t123 -253q0 -72 -23.5 -130t-71 -101t-72 -61.5t-69.5 -45.5q4 -2 31 -17l37 -22q10 -6 37.5 -24.5t41.5 -30.5l38 -34q25 -22 38 -40t30.5 -45t26.5 -52.5 t15 -58t6 -67.5q0 -182 -133 -292t-358 -110q-211 0 -350.5 98.5t-139.5 291.5zM274 369q0 -125 89.5 -186.5t222.5 -61.5q168 0 240.5 68.5t72.5 156.5q0 35 -11 64.5t-24.5 50t-52.5 50.5t-63.5 45l-93 55t-107.5 65q-94 -33 -155.5 -80t-83 -97t-28 -76.5t-6.5 -53.5z M328 1133q0 -25 5 -43.5t18.5 -38t26.5 -32.5t44 -34l52 -34l70 -40.5t81 -48.5q221 90 221 246q0 102 -75 153.5t-185 51.5q-137 0 -197.5 -55t-60.5 -125z" />
<glyph unicode="9" d="M96 952q0 231 146 367q133 125 350 125q150 0 269.5 -84t174.5 -275q41 -139 41 -360q0 -170 -39 -305t-100 -216t-142 -134.5t-157 -73t-154 -19.5q-135 0 -232 58.5t-97 183.5q0 51 30.5 81t73.5 30q45 0 76 -30t31 -75q0 -33 -25 -71q66 -33 143 -33q68 0 126.5 20.5 t119 71.5t99 161.5t44.5 268.5q-158 -186 -395 -186q-172 0 -278 137q-105 135 -105 358zM297 901q0 -45 9 -88t35 -92t84 -79t140 -30q135 0 218 90.5t83 212.5q0 72 -12 136.5t-42 126t-86 98.5t-134 37q-145 0 -223 -92q-70 -80 -70 -252v-37q0 -2 -1 -12.5t-1 -18.5z " />
<glyph unicode=":" horiz-adv-x="653" d="M188 831q0 57 42 96.5t95.5 39.5t94.5 -39t41 -96.5t-41 -97.5t-94 -40q-59 0 -98.5 41t-39.5 96zM188 137q0 57 42 96t95.5 39t94.5 -38.5t41 -96t-41 -97.5t-94 -40q-59 0 -98.5 41t-39.5 96z" />
<glyph unicode=";" horiz-adv-x="653" d="M188 831q0 57 42 96.5t95.5 39.5t94.5 -39t41 -96.5t-41 -97.5t-94 -40q-59 0 -98.5 41t-39.5 96zM188 137q0 57 38 96t98 39q74 0 118.5 -68.5t44.5 -185.5q0 -104 -39.5 -205.5t-82.5 -153.5t-66 -52q-18 0 -57 40t-39 56q0 8 29.5 43t62.5 102.5t37 151.5 q-76 2 -110 46t-34 91z" />
<glyph unicode="&#x3c;" horiz-adv-x="1830" d="M197 512q0 25 16 44t26.5 25.5t34.5 18.5l1180 610q78 43 102 43q31 0 53.5 -23.5t22.5 -53.5q0 -10 -2 -19.5t-8 -18t-11 -13.5t-15.5 -12t-14.5 -9t-14.5 -8t-12.5 -6l-1114 -578l76 -41l1038 -537q37 -18 50 -28q29 -27 28 -60q0 -31 -22.5 -53t-53.5 -22 q-20 0 -53 16l-1227 635q-6 2 -14 7l-13 8l-12 7q-7 4 -11.5 7.5t-9.5 8.5t-8 10t-6 11t-4 14.5t-1 16.5z" />
<glyph unicode="=" horiz-adv-x="1830" d="M131 268q0 31 20.5 54.5t71.5 23.5h1383q39 0 61.5 -16.5t26.5 -30.5t4 -29q0 -78 -101 -77h-1364q-102 -1 -102 75zM131 753.5q0 77.5 100 77.5h1371q39 0 62.5 -16t28.5 -31.5t5 -29.5q0 -76 -92 -78h-1381q-94 0 -94 77.5z" />
<glyph unicode="&#x3e;" horiz-adv-x="1830" d="M197 -154q0 25 16 45.5t24.5 24.5t34.5 18l1117 578q-39 18 -78 39l-1039 539q-2 0 -11 5t-12 7t-12.5 7t-12.5 9t-10 11.5t-10 13.5t-5 14t-2 19q0 31 22.5 54t52.5 23q25 0 54 -18l1226 -635l15 -6q14 -8 18 -11l17 -13q12 -9 16 -15t9 -18.5t5 -24.5q0 -25 -15 -44 t-27.5 -26.5t-35.5 -17.5l-1228 -637q-33 -16 -54 -16q-31 0 -53 22t-22 53z" />
<glyph unicode="?" horiz-adv-x="1112" d="M129 1137q0 113 104.5 205t296.5 92q137 0 231.5 -29t138.5 -78t61.5 -95t17.5 -99q0 -104 -66 -183q-20 -23 -80.5 -66.5t-107.5 -81.5t-86 -111t-39 -163v-28q0 -41 -9 -51.5t-52 -10.5h-45q-31 0 -40.5 11.5t-9.5 37.5v45q0 98 25 180.5t67 138.5t76.5 90t77.5 64.5 t45 32.5q43 33 43 99q0 45 -19.5 75.5t-57 44t-71.5 18.5t-83 5h-6q-147 0 -230 -74q29 -43 29 -73q0 -45 -30.5 -75t-73.5 -30q-45 0 -76 30t-31 79zM385 137q0 53 40 94t97 41q53 0 94 -38.5t41 -96.5q0 -59 -39.5 -98t-95.5 -39q-57 0 -97 41t-40 96z" />
<glyph unicode="@" horiz-adv-x="1830" d="M129 711q0 324 214 523.5t568 199.5h2q360 0 573.5 -200t213.5 -523q0 -199 -86 -331t-223 -132q-109 0 -164 108q-133 -111 -316 -110q-211 0 -339 128t-128 339q0 207 129 335t340 128q133 0 235.5 -56.5t158.5 -152.5h26q29 0 40 -9.5t11 -42.5v-440q0 -72 56 -72 q113 0 112 293q0 276 -176 430t-458 154q-301 0 -471.5 -158.5t-170.5 -410.5q0 -76 17.5 -150t65 -151.5t118 -135t186 -94.5t263.5 -37q219 0 429 37t218 37h80q25 0 35 -10t4 -23q-6 -10 -37 -24q-348 -170 -733 -170q-362 0 -577.5 197.5t-215.5 523.5zM623 711 q0 -141 79.5 -225.5t212.5 -84.5q123 0 206 69t83 163v147q0 109 -86 175.5t-203 66.5q-131 0 -211.5 -84t-80.5 -227z" />
<glyph unicode="A" horiz-adv-x="1734" d="M82 0v154h174l502 1210q14 33 30.5 46t53.5 13h43q43 0 59.5 -14t36.5 -66l494 -1189h174v-154h-492v154h109l-111 268h-623l-110 -268h108v-154h-448zM598 578h492l-211 522l-35 100q-33 -96 -138.5 -357t-107.5 -265z" />
<glyph unicode="B" horiz-adv-x="1652" d="M154 0v154h159v1114h-159v155h759q154 0 265.5 -35.5t168 -93t81 -116t24.5 -119.5q0 -227 -311 -314q156 -23 267.5 -112.5t111.5 -241.5q0 -49 -12.5 -98t-61.5 -115.5t-131 -109.5q-131 -68 -357 -68h-804zM502 154h401q301 0 387 143q29 47 29 100q0 37 -13.5 75 t-44 79t-92 70.5t-147.5 37.5q-61 4 -92 5h-428v-510zM502 817h360q211 0 303 74t92 166q0 86 -66.5 137t-162.5 68q-41 6 -123 6h-403v-451z" />
<glyph unicode="C" horiz-adv-x="1701" d="M129 713q0 328 218 529.5t573 201.5q264 0 466 -174q76 123 98.5 148.5t45.5 25.5q39 0 39 -47v-459q0 -29 -10.5 -39t-36.5 -10q-2 0 -5.5 1t-5.5 1h-4h-61q-14 0 -25.5 9t-9.5 21.5t-8 46t-27 70.5q-41 92 -140 172t-257 80q-133 0 -247 -33.5t-205 -101.5t-142 -180.5 t-51 -261.5q0 -133 41 -237.5t105.5 -168t151.5 -103.5t172 -55.5t177 -15.5q168 0 292 88t138 232q4 39 12.5 47t44.5 8h48q29 0 40 -8t11 -37q0 -180 -177.5 -333t-471.5 -153q-125 0 -240 29t-215.5 88.5t-174 145.5t-116.5 207t-43 266z" />
<glyph unicode="D" horiz-adv-x="1783" d="M152 0v154h159v1114h-159v155h737q367 0 563 -196q199 -199 199 -527q0 -297 -172 -484t-467 -212q-41 -4 -121 -4h-739zM506 154h350q594 0 594 544q0 569 -596 570h-348v-1114z" />
<glyph unicode="E" horiz-adv-x="1501" d="M150 0v154h159v1108h-159v155h1169l51 -473h-156q-16 154 -27 211t-27.5 75.5t-57.5 22.5q-70 8 -324 9h-270v-449h117q160 0 188.5 9t32.5 61q2 35 2 104v17h153v-537h-153v18q0 106 -7 135t-40 33q-51 6 -176 6q-18 0 -57.5 -1t-59.5 -1v-503h317q150 0 219.5 1 t111.5 11t49 19.5t18 35.5q20 59 57 305h156l-78 -526h-1208z" />
<glyph unicode="F" horiz-adv-x="1435" d="M150 0v154h159v1108h-159v155h1136l51 -473h-153q-31 264 -58 291q-29 29 -278 29q-23 0 -50.5 -1t-29.5 -1h-260v-476q20 0 57 -1t56 -1q154 0 180 9.5t30 64.5q4 39 5 119h153v-537h-153q0 139 -11.5 163t-81.5 26h-6q-39 2 -116 2h-113v-477h201v-154h-559z" />
<glyph unicode="G" horiz-adv-x="1841" d="M129 711q0 330 217 531.5t574 201.5q258 0 466 -174q76 123 98.5 148.5t45.5 25.5q39 0 39 -47v-459q0 -29 -10.5 -39t-36.5 -10q-2 0 -5.5 1t-5.5 1h-6q-53 0 -68.5 4t-19.5 12t-11 45t-26 80q-43 96 -142 177t-257 81q-285 0 -466 -144.5t-181 -432.5 q0 -250 137 -395.5t377 -176.5q61 -8 182 -8q145 0 220 18.5t96.5 46t21.5 83.5v159h-295v154h660v-154h-164v-374q0 -61 -25 -62q-23 0 -100 78q-131 -104 -506 -105q-391 0 -600 209.5t-209 524.5z" />
<glyph unicode="H" horiz-adv-x="1820" d="M150 0v154h159v1114h-159v155h518v-155h-160v-451h803v451h-160v155h518v-155h-158v-1114h158v-154h-518v154h160v510h-803v-510h160v-154h-518z" />
<glyph unicode="I" horiz-adv-x="819" d="M141 0v154h168v1114h-168v155h535v-155h-166v-1114h166v-154h-535z" />
<glyph unicode="J" horiz-adv-x="1193" d="M135 231q0 51 33 84t78 33t77.5 -31.5t32.5 -78.5q0 -37 -22 -72q72 -33 176 -33q209 0 209 193v942h-207v155h520v-155h-119v-953q0 -96 -37.5 -165.5t-100 -105.5t-127 -51.5t-134.5 -15.5q-162 0 -270.5 70.5t-108.5 183.5z" />
<glyph unicode="K" horiz-adv-x="1800" d="M154 0v154h159v1114h-159v155h508v-155h-160v-617l725 617h-33v155h473v-155h-180q-25 0 -34 -5.5t-54 -41.5l-441 -375v-2l560 -690h182v-154h-457v154h53l-469 579l-288 -244q-27 -23 -32 -34t-5 -37v-264h160v-154h-508z" />
<glyph unicode="L" horiz-adv-x="1370" d="M150 0v154h159v1114h-159v155h559v-155h-201v-1114h246q143 0 206.5 6t85 20.5t29.5 46.5q18 63 43 299h154l-51 -526h-1071z" />
<glyph unicode="M" horiz-adv-x="2213" d="M164 0v154h160v1114h-160v155h340q37 0 55.5 -11t32.5 -48q4 -10 253 -578l261 -593l49 110l463 1059q16 37 34.5 49t55.5 12h340v-155h-160v-1114h160v-154h-492v154h160v964l-2 142l-31 -71q-20 -46 -24 -56l-471 -1076q-16 -37 -33.5 -47t-56.5 -10h-13 q-43 0 -59 14.5t-39 65.5l-512 1167v-1093h160v-154h-471z" />
<glyph unicode="N" horiz-adv-x="1820" d="M154 0v154h159v1114h-159v155h311q27 0 39 -7t35 -34l813 -1056v942h-160v155h471v-155h-160v-1198q0 -23 -2 -35t-14 -23.5t-39 -11.5h-37q-29 0 -41 7t-33 34l-872 1133v-1020h160v-154h-471z" />
<glyph unicode="O" horiz-adv-x="1746" d="M129 700q0 336 203 540t542 204q336 0 538 -204t202 -540q0 -328 -203 -525.5t-543 -197.5q-334 0 -536.5 197.5t-202.5 525.5zM334 737q0 -276 143.5 -431.5t392.5 -155.5q254 0 396.5 156.5t142.5 430.5q0 266 -148.5 404.5t-388.5 138.5q-242 0 -390 -137.5 t-148 -405.5z" />
<glyph unicode="P" horiz-adv-x="1587" d="M152 0v154h159v1114h-159v155h716q250 0 392 -88q195 -121 194 -346q0 -74 -25.5 -142.5t-85 -137t-180.5 -110.5t-289 -42h-364v-403h160v-154h-518zM506 711h315q143 0 236.5 24.5t144.5 95.5q47 66 47 158q0 78 -31.5 133.5t-73.5 83t-106.5 43t-103.5 17.5t-94 2 h-334v-557z" />
<glyph unicode="Q" horiz-adv-x="1746" d="M129 702q0 334 201.5 538t541.5 204q334 0 538 -203t204 -541q0 -258 -125 -433t-326 -242q39 -111 85 -164.5t112 -53.5q72 0 126 47.5t66 125.5q0 53 35 53q39 0 39 -49q0 -51 -13.5 -109.5t-41 -123t-86 -106.5t-135.5 -42q-43 0 -78 10t-62.5 39l-45 49t-36.5 71 l-25 69q-7 19 -23.5 81t-20.5 74q-94 -18 -189 -19q-338 0 -539.5 198.5t-201.5 526.5zM330 702q0 -201 82 -332.5t219 -183.5q12 84 82.5 130t154.5 46q150 0 236 -178q139 49 224 180.5t85 335.5q0 276 -146.5 427t-396.5 151q-248 0 -394 -151t-146 -425zM791 174 q0 -31 75 -31h8q49 0 115 11q-53 53 -119 53q-79 0 -79 -33z" />
<glyph unicode="R" horiz-adv-x="1718" d="M152 0v154h159v1114h-159v155h620q406 0 565 -180q84 -92 84 -215q0 -102 -63.5 -190t-186.5 -140v-2q100 -63 131 -140t31 -179q0 -10 -1 -31.5t-1 -30.5q0 -88 27 -127q39 -55 119 -55q35 0 52 17.5t25.5 44t10.5 30.5q12 16 51 17h35q57 0 57 -49q0 -70 -58.5 -143 t-172.5 -73q-139 0 -234.5 62.5t-109.5 179.5q-4 23 -5 68v125q0 74 -24 108q-78 115 -336 115h-262v-481h158v-154h-512zM506 788h262q174 0 276.5 31t147.5 113q25 43 25 96q0 123 -119 186q-100 53 -318 54h-274v-480z" />
<glyph unicode="S" horiz-adv-x="1308" d="M129 27v403q0 20 7 30.5t15.5 11.5t26.5 1h43q45 0 55 -14q4 -6 7.5 -41t21 -82t53.5 -86q115 -117 353 -117q150 0 218 73t68 165q0 76 -43 131t-102 84q-37 16 -224.5 56t-230.5 56q-111 45 -189.5 137.5t-78.5 223.5q0 63 23.5 126.5t72.5 124t143.5 97.5t219.5 37 q229 0 377 -139q37 72 56 101.5t26.5 33.5t23.5 4q25 0 32 -11.5t7 -37.5v-402q-2 -31 -17.5 -38t-66.5 -7h-16q-35 0 -47 15q-2 4 -9.5 32.5l-17.5 64.5t-36 80t-62.5 78.5t-102 58t-149.5 23.5q-127 0 -203 -60t-76 -155q0 -80 55.5 -132t124.5 -72q29 -10 189 -44 t196 -44q119 -39 211.5 -143.5t92.5 -254.5q0 -68 -21.5 -134t-70 -133t-145.5 -109t-228 -42q-260 0 -439 136q-49 -94 -64 -115t-40 -21q-39 1 -39 50z" />
<glyph unicode="T" horiz-adv-x="1615" d="M84 938l35 473h1376l35 -473h-156q-16 219 -27.5 261t-52.5 48q-53 10 -225 10h-162v-1103h226v-154h-652v154h226v1103h-177q-90 0 -127.5 -1t-73.5 -6t-44.5 -16t-15.5 -30.5t-11 -50.5v-6q-4 -35 -20 -209h-154z" />
<glyph unicode="U" horiz-adv-x="1777" d="M150 1268v155h518v-155h-160v-770q0 -365 395 -365q410 0 410 365v770h-160v155h473v-155h-158v-768q0 -150 -54 -257.5t-143 -161.5t-181.5 -79t-190.5 -25q-80 0 -156.5 13.5t-157.5 50.5t-140.5 93t-97.5 150.5t-38 213.5v770h-159z" />
<glyph unicode="V" horiz-adv-x="1734" d="M51 1268v155h486v-155h-105l397 -903l60 -142l61 150l393 895h-104v155h442v-155h-168l-536 -1211q-16 -35 -34.5 -46t-53.5 -11h-31q-51 0 -69.5 12.5t-43.5 67.5l-526 1188h-168z" />
<glyph unicode="W" horiz-adv-x="2390" d="M47 1268v155h461v-155h-113l242 -688q104 -309 113 -357q6 37 43 152l87 260l97 277l86 241q39 109 41 115h-129v155h461v-155h-115l231 -658q106 -307 125 -387l21 78l100 303l234 664h-131v155h438v-155h-152l-432 -1211q-12 -35 -29.5 -46t-52.5 -11h-33 q-39 0 -55 14.5t-33 59.5l-372 1042q-41 -168 -171 -548t-182 -513q-12 -33 -28.5 -44t-50.5 -11h-37q-25 0 -39.5 4t-24.5 21.5t-13 23.5t-13 37l-422 1182h-152z" />
<glyph unicode="X" horiz-adv-x="1734" d="M72 0v154h211l456 583v2l-428 529h-205v155h500v-155h-53l307 -377l297 377h-65v155h473v-155h-179q-23 0 -31.5 -6.5t-31.5 -32.5q-4 -6 -8 -10l-354 -453l495 -612h205v-154h-500v154h51l-372 460l-361 -460h64v-154h-471z" />
<glyph unicode="Y" horiz-adv-x="1734" d="M43 1268v155h504v-155h-62l408 -539l403 539h-59v155h453v-155h-199l-502 -666q-18 -25 -21 -36t-3 -48v-364h157v-154h-512v154h160v378q0 33 -25 68l-503 668h-199z" />
<glyph unicode="Z" horiz-adv-x="1439" d="M129 59v25q0 29 4 39t27 41l868 1104h-252q-299 0 -360.5 -16.5t-79.5 -104.5q-14 -66 -19 -197h-155l20 473h1061q41 0 52.5 -15t11.5 -62q0 -39 -33 -80l-862 -1100h280q319 0 377.5 17.5t73.5 117.5v2q14 82 22 246h154l-31 -549h-1095q-23 0 -34.5 2t-20.5 16t-9 41z " />
<glyph unicode="[" horiz-adv-x="653" d="M233 -512v2048h367v-154h-182v-1740h182v-154h-367z" />
<glyph unicode="\" d="M131 1458q0 33 22.5 54.5t53.5 21.5q53 0 84 -78l729 -1814q25 -59 24 -76q0 -31 -22.5 -53.5t-54.5 -22.5q-25 0 -43.5 16.5t-25.5 29.5t-19 42l-732 1817q-16 55 -16 63z" />
<glyph unicode="]" horiz-adv-x="653" d="M51 -358h185v1740h-185v154h367v-2048h-367v154z" />
<glyph unicode="^" horiz-adv-x="1439" d="M262 1102l457 207l457 -207l-64 -141q-383 166 -393 165q-8 0 -393 -165z" />
<glyph unicode="_" horiz-adv-x="1830" d="M197 -637q0 63 79 64h1272q82 0 82 -64q0 -61 -82 -61h-1272q-79 0 -79 61z" />
<glyph unicode="`" d="M246 1327q0 37 27.5 67.5t64.5 30.5q10 0 18.5 -1t21.5 -8l25 -14q12 -7 40 -26l57 -39l82 -55l110 -72l-78 -133q-61 29 -290 156q-78 39 -78 94z" />
<glyph unicode="a" horiz-adv-x="1150" d="M94 287q0 86 60.5 149.5t164 95t210 46t225.5 14.5v47q0 111 -82 156q-59 35 -183 34q-41 0 -110 -4q-2 -61 -36 -87.5t-71 -26.5q-43 0 -73.5 29.5t-30.5 76.5q0 166 338 166q66 0 124 -9t117.5 -32.5t100.5 -60.5t67.5 -98.5t26.5 -141.5v-428q2 -37 28.5 -47 t112.5 -12q31 0 45.5 -10.5t14.5 -47.5v-35q0 -37 -13.5 -49t-46.5 -12h-57q-141 0 -191.5 29.5t-64.5 91.5q-152 -133 -399 -133q-135 0 -206 95t-71 204zM285 291q0 -53 53 -100.5t156 -47.5q59 0 113.5 14.5t100.5 57.5t46 111v151q-137 -2 -235.5 -21.5t-145.5 -48 t-67.5 -57t-20.5 -59.5z" />
<glyph unicode="b" horiz-adv-x="1318" d="M86 1245v156l338 22v-553q188 109 436 109q172 0 275.5 -133t103.5 -358.5t-120 -361.5t-324 -136q-215 0 -385 139l-17 -129h-153v1167q0 49 -22.5 63.5t-106.5 14.5h-25zM428 362q2 -74 84 -146.5t197 -72.5q330 0 329 342q0 338 -307 338q-106 0 -204.5 -50 t-98.5 -122v-289z" />
<glyph unicode="c" horiz-adv-x="1046" d="M78 485q0 66 14 130.5t51 132t94.5 120t151.5 85t215 32.5q66 0 112 -4t107.5 -18.5t95 -51.5t33.5 -92q0 -49 -29.5 -78.5t-74.5 -29.5q-20 0 -38.5 6t-40 30.5t-26.5 67.5h-2q-82 4 -123 4q-340 0 -339 -332q0 -94 34.5 -163.5t91 -104.5t115 -50t121.5 -15 q72 0 113 33.5t59 77.5t25 48q10 6 67 6h27q45 0 45 -26q0 -12 -10.5 -42t-38 -76t-69.5 -86t-114.5 -69.5t-160.5 -29.5q-225 0 -365.5 134t-140.5 361z" />
<glyph unicode="d" horiz-adv-x="1318" d="M78 483q0 213 106.5 354.5t309.5 141.5q227 0 401 -105v297q-2 49 -26.5 61.5t-114.5 12.5h-13v156l336 22v-1190q0 -49 21.5 -64t107.5 -15h25v-154l-342 -10v131q-182 -131 -402 -131q-162 0 -284.5 117.5t-124.5 375.5zM279 481q0 -186 86 -262t217 -76q123 0 215 75 t92 151v282q0 43 -29 74q-90 98 -250 98q-331 0 -331 -342z" />
<glyph unicode="e" horiz-adv-x="1048" d="M63 489q0 221 135.5 357.5t356.5 136.5q121 0 209 -41t133 -109.5t64.5 -142.5t19.5 -155q0 -37 -13.5 -48.5t-43.5 -11.5h-660q10 -150 90 -227q100 -92 285 -92q70 0 113 28.5t64.5 70.5t25.5 44q12 10 43 10h18q74 0 74 -37q0 -29 -24.5 -73.5t-69.5 -93t-125 -82 t-174 -33.5q-225 0 -373 134t-148 365zM274 606h535q-8 39 -18.5 69t-37 69.5t-76.5 62t-122 22.5q-234 0 -281 -223z" />
<glyph unicode="f" horiz-adv-x="718" d="M74 813v154h170v125q0 106 49 178q59 84 173 124t239 40q74 0 102.5 -49.5t28.5 -96.5q0 -49 -29 -77.5t-74 -28.5q-18 0 -36.5 6t-40 29.5t-25.5 62.5q-209 -6 -209 -182v-131h262v-154h-256v-659h190v-154h-528v154h154v659h-170z" />
<glyph unicode="g" d="M63 -131q0 141 144 213q-47 74 -47 154q0 84 55 165q-80 96 -80 228q0 156 105.5 253t281.5 97q137 0 242 -68q104 78 227 78q63 0 106.5 -35.5t43.5 -89.5q0 -39 -28 -64.5t-62 -25.5q-57 0 -86 62l-117 -7q59 -98 59 -200q0 -158 -106.5 -255.5t-278.5 -97.5 q-119 0 -231 60q-10 -29 -10 -60q0 -80 71 -106q18 -6 58 -6h221q78 0 134 -5t134 -24.5t130 -70t73 -125.5q8 -45 8 -68q0 -47 -24.5 -92t-79 -89t-163 -72t-257.5 -28q-279 0 -401 86.5t-122 192.5zM236 -127q0 -66 92 -105.5t247 -39.5h5q104 0 180 14t111.5 37.5t51 45 t15.5 44.5q0 121 -332 121h-194q-94 0 -133 -33q-43 -31 -43 -84zM319 631q0 -215 201 -215q203 0 203 209q0 215 -201 215q-203 0 -203 -209z" />
<glyph unicode="h" horiz-adv-x="1318" d="M94 0v154h154v1020q-2 45 -25.5 58t-105.5 13h-23v156l338 22v-598q145 154 340 154q106 0 174 -28.5t96.5 -83t38 -102.5t9.5 -118v-493h153v-154h-495v154h153v487q0 90 -43 136t-178 46q-94 0 -169 -63.5t-75 -216.5v-389h154v-154h-496z" />
<glyph unicode="i" horiz-adv-x="665" d="M176 1286q0 53 39 95t96 42q55 0 95 -38.5t40 -98.5q0 -57 -39.5 -96t-95.5 -39q-57 0 -96 40t-39 95zM96 0v154h154v567q0 51 -20.5 65.5t-108.5 14.5h-17v155l330 23v-825h137v-154h-475z" />
<glyph unicode="j" horiz-adv-x="731" d="M240 1286q0 53 38.5 95t96.5 42q55 0 96 -38.5t41 -98.5q0 -57 -41 -96t-94 -39q-57 0 -97 40t-40 95zM-84 -246q0 47 30.5 76t76.5 29q39 0 71.5 -26t32.5 -87q8 0 22.5 -1t20.5 -1q51 0 86 19.5t49 52t19.5 57.5t5.5 51v805q-2 45 -28 58.5t-116 13.5h-24v155l350 23 v-1010q0 -6 1 -21.5t1 -23.5q0 -94 -42 -163.5t-107.5 -104.5t-127 -50.5t-118.5 -15.5q-88 0 -145.5 48t-57.5 116z" />
<glyph unicode="k" horiz-adv-x="1253" d="M92 0v154h154v1020q-2 45 -25.5 58t-105.5 13h-23v156l328 22v-888l313 278h-63v154h491v-154h-170q-25 0 -44 -11t-38.5 -30.5t-78.5 -72.5l-128 -109q14 -20 167 -216t155 -196q18 -23 45 -24h145v-154h-432v154h52l-252 325h-2l-72 -65q-35 -31 -49.5 -42.5 t-26.5 -24.5t-15 -21.5t-3 -24.5v-147h153v-154h-475z" />
<glyph unicode="l" horiz-adv-x="665" d="M96 0v154h154v1020q-2 45 -25.5 58t-105.5 13h-23v156l338 22v-1269h154v-154h-492z" />
<glyph unicode="m" horiz-adv-x="1974" d="M94 0v154h154v567q0 53 -25.5 66.5t-109.5 13.5h-19v155l332 23v-162q137 162 344 162q127 0 198.5 -42t104.5 -128q145 170 352 170q88 0 150.5 -22.5t95.5 -53.5t50.5 -81t20.5 -87t3 -90v-491h153v-154h-495v154h153v487q0 92 -40.5 136t-174.5 46 q-102 0 -175.5 -63.5t-73.5 -216.5v-389h153v-154h-495v154h153v487q0 92 -42 136t-175 46q-100 0 -175 -64.5t-75 -215.5v-389h154v-154h-496z" />
<glyph unicode="n" horiz-adv-x="1318" d="M94 0v154h154v567q0 53 -25.5 66.5t-109.5 13.5h-19v155l332 23v-162q129 162 346 162q88 0 150.5 -22.5t94.5 -53.5t49 -82t20.5 -87t3.5 -89v-491h153v-154h-495v154h153v487q0 90 -43 136t-178 46q-94 0 -169 -63.5t-75 -216.5v-389h154v-154h-496z" />
<glyph unicode="o" d="M63 475q0 229 143.5 368.5t381.5 139.5q236 0 379 -140.5t143 -367.5q0 -221 -142.5 -353t-382 -132t-381 132t-141.5 353zM264 502q0 -348 322 -348q324 0 323 348q0 328 -319 327q-326 1 -326 -327z" />
<glyph unicode="p" horiz-adv-x="1318" d="M86 -244h154v975q-2 45 -26 57.5t-105 12.5h-23v155l338 23v-109q188 109 457 109q162 0 260 -132t98 -358q0 -223 -116.5 -361t-325.5 -138q-197 0 -369 123v-357h154v-155h-496v155zM428 360q0 -72 83 -144.5t196 -72.5q141 0 236 89.5t95 250.5q0 152 -85 241t-226 89 q-109 0 -204 -48t-95 -118v-287z" />
<glyph unicode="q" horiz-adv-x="1253" d="M78 483q0 229 114.5 362.5t307.5 133.5q233 0 411 -143l17 143h149v-1223h154v-155h-496v155h154v371q-178 -137 -397 -137q-186 0 -300 134t-114 359zM279 481q0 -154 85 -246t222 -92q121 0 199.5 70t103.5 137q6 18 6 58v170q0 90 -86 162.5t-199 72.5 q-141 0 -236 -86t-95 -246z" />
<glyph unicode="r" horiz-adv-x="929" d="M86 0v154h154v567q0 53 -26 66.5t-110 13.5h-18v155l326 23v-92l2 -72q102 158 270 164h2q70 0 123 -42t53 -108q0 -45 -30.5 -73.5t-73.5 -28.5q-84 0 -101 94q-115 -25 -175 -117t-60 -239q0 -6 1 -22.5t1 -22.5v-266h190v-154h-528z" />
<glyph unicode="s" horiz-adv-x="929" d="M78 43v279q2 27 13 35t46 8h50q17 0 28.5 -8.5t13.5 -9.5t8.5 -21.5t8.5 -28.5q57 -154 225 -154q115 0 160 40t45 93q0 106 -195 140q-6 2 -47 8t-52 9t-45 11.5t-50 15.5l-43 18q-27 11 -47.5 25.5t-40.5 33.5q-78 72 -78 174q0 47 15.5 89t53 86t116.5 70.5t192 26.5 q137 0 217 -55h2q4 4 12 13t11 12t10.5 9.5t10.5 9.5t9 6t12 4t13 1q39 0 39 -49v-225q-2 -25 -14.5 -33t-43.5 -8q-35 0 -53 1t-28.5 7t-12.5 9t-4 19.5t-4 24.5q-23 113 -191 113q-188 0 -188 -109q0 -49 48 -76.5t112.5 -36t152.5 -30t144 -55.5q141 -92 141 -242 q0 -53 -15.5 -100.5t-53.5 -96.5t-116.5 -78.5t-191.5 -29.5q-150 0 -260 92l-13 -19l-14 -17q-4 -5 -10 -14.5t-10 -13.5l-9 -9q-5 -5 -9.5 -7t-9.5 -5t-10 -4t-11 -1q-18 0 -26.5 8t-10.5 17.5t-2 27.5z" />
<glyph unicode="t" horiz-adv-x="915" d="M43 813v154q221 14 223 415h156v-415h321v-154h-321v-487q0 -111 41 -148q27 -23 59 -22q43 0 76 40t33 140q0 8 -1 24.5t-1 22.5h155v-51q0 -96 -36.5 -168t-94 -106.5t-109.5 -51t-100 -16.5q-158 0 -198 178q-14 61 -15 162v483h-188z" />
<glyph unicode="u" horiz-adv-x="1318" d="M94 801v155l342 23v-709q0 -78 33 -102.5t151.5 -24.5t200.5 53.5t80 163.5v367q0 47 -23.5 60.5t-111.5 13.5h-18v155l342 23v-750q0 -47 24.5 -61t110.5 -14h18v-154l-336 -10v139q-154 -139 -411 -139q-72 0 -121 20.5t-74 46t-37 72.5t-14 74.5t-2 77.5v444 q0 53 -29 64.5t-119 11.5h-6z" />
<glyph unicode="v" horiz-adv-x="1253" d="M51 813v154h451v-154h-103l205 -506l37 -112q10 43 67 187l115 287q59 142 60 144h-103v154h422v-154h-160l-309 -750q-16 -37 -32.5 -50t-53.5 -13h-39q-31 0 -48 10t-24.5 21.5t-19.5 42.5l-305 739h-160z" />
<glyph unicode="w" horiz-adv-x="1712" d="M47 813v154h440v-154h-108l119 -346l41 -131l24 -96l10 -45q8 96 193 618h-125v154h424v-154h-111q180 -508 203 -618q8 49 45 161l91 267l67 190h-125v154h428v-154h-147l-263 -747q-14 -39 -29.5 -51.5t-47.5 -14.5h-41q-37 0 -52.5 12.5t-29.5 48.5l-211 601 q-29 -158 -185 -601q-12 -37 -28.5 -49t-55.5 -12h-32q-37 0 -53.5 14.5t-32.5 57.5l-260 741h-148z" />
<glyph unicode="x" horiz-adv-x="1253" d="M41 0v154h170q8 0 15 1t15.5 6t15.5 12t19 22l26 29l36 43l46 58l61 75l77 94v2q-25 27 -100 118l-135 162l-16.5 19.5t-12.5 10.5t-15 6t-20 1h-168v154h451v-154h-45l162 -195l157 195h-49v154h443v-154h-175q-8 0 -13 -1t-13 -6t-14.5 -10t-17.5 -19l-22 -27l-32 -40 l-42 -54l-55 -69l-71 -85l258 -307q23 -27 32 -33t33 -8h168v-154h-450v154h45l-187 225l-184 -225h47v-154h-440z" />
<glyph unicode="y" horiz-adv-x="1253" d="M51 -238q0 47 30 75t73 28q35 0 67.5 -25.5t32.5 -83.5v-12q31 0 58 5l48 9q20 4 40 17.5t32 19.5t26.5 25.5t20.5 27t17.5 31t13.5 28.5l12 32q10 27 10 28q10 25 10.5 33t-12.5 39l-319 774h-160v154h451v-154h-103l205 -506l37 -112q14 57 127 333.5t115 284.5h-103 v154h422v-154h-160l-360 -872q0 -2 -12.5 -32t-17.5 -39t-18 -37t-23.5 -43t-28 -37.5t-37.5 -43.5q-121 -119 -275 -119q-90 0 -154.5 48t-64.5 124zM242 -256l8 2h-6z" />
<glyph unicode="z" horiz-adv-x="1048" d="M63 57v31q0 37 43 86l553 639h-129q-190 0 -223 -9t-43 -67q-2 -6 -2 -8q-2 -20 -4 -45t-4 -53.5t-4 -44.5h-154l21 381h760q43 0 53 -14.5t10 -49.5v-23q0 -9 -2 -18l-3 -12q-1 -4 -6 -11l-7 -11q-2 -3 -11.5 -12t-13.5 -15l-551 -635h176q178 0 211 12t43 82 q4 25 15 170h155l-31 -430h-784q-25 0 -36 2t-21.5 15t-10.5 40z" />
<glyph unicode="{" d="M119 485v56q0 29 12 39t31.5 10t66.5 6t99 22q59 20 97 49t51 65t15.5 52.5t2.5 46.5v418q0 29 1 43.5t10 49t27.5 59t58.5 53.5t95 47q106 35 268 35h60q27 -2 35 -12.5t8 -38.5v-53q0 -33 -12.5 -42.5t-47.5 -9.5h-16q-182 0 -240.5 -29.5t-58.5 -93.5v-383q0 -8 1 -21 t1 -19q0 -47 -6 -79t-28.5 -81t-81 -90t-148.5 -72q76 -27 129 -62.5t78.5 -65.5t39 -74t14.5 -63.5t1 -56.5v-426q0 -63 59.5 -92.5t253.5 -29.5h13q31 0 40 -9.5t9 -38.5v-57q0 -33 -10.5 -41t-38.5 -8h-60q-455 0 -454 283v440q0 80 -54.5 132t-118 66.5t-124 21.5 t-62.5 9q-16 10 -16 45z" />
<glyph unicode="|" horiz-adv-x="653" d="M264 -428v1872q0 90 61.5 90t61.5 -80v-1874q0 -90 -61.5 -90t-61.5 82z" />
<glyph unicode="}" d="M119 -408q0 35 12 42.5t49 7.5h8q188 0 247 30.5t59 94.5v426q0 33 2 55t15 64t38.5 74t79 66.5t127.5 59.5q-76 25 -129.5 61.5t-79 67.5t-38.5 75t-14 63.5t-1 54.5v426q0 70 -64.5 94t-245.5 28h-33q-7 0 -17.5 5.5t-12.5 14.5t-2 28v57q0 29 9 39t38 10h61 q455 0 455 -283v-419q0 -35 4 -54q4 -25 16.5 -49t43 -57t98 -55.5t162.5 -28.5q33 -2 42 -10.5t9 -49.5v-49q0 -37 -15.5 -43t-74 -9t-117.5 -23.5t-97 -49t-51.5 -63.5t-16.5 -53.5t-3 -46.5v-418q0 -35 -3 -56.5t-18.5 -63.5t-58.5 -75t-110 -57q-102 -35 -275 -35h-55 q-27 2 -35 12.5t-8 38.5v53z" />
<glyph unicode="~" horiz-adv-x="1439" d="M195 1155q12 14 49 54l52 57l47 48q32 32 51 45l47 31q28 17 54.5 24t53.5 7q63 0 167.5 -70.5t170.5 -70.5q47 0 98 28.5t70 46.5l71 68l113 -106q-12 -14 -49 -54l-52 -57l-46 -47q-31 -31 -51.5 -45l-48 -31.5t-53.5 -24.5t-52 -7q-63 0 -168 71.5t-170 71.5 q-39 0 -80 -18.5t-60.5 -34t-59.5 -52t-42 -38.5z" />
<glyph unicode="&#xa1;" horiz-adv-x="739" d="M231 -283q0 20 5 62l53 753q2 27 9 39.5t15.5 13.5t30.5 1q4 0 16.5 1t18.5 1q43 0 53 -8.5t14 -40.5l58 -797v-29q0 -59 -40 -96t-95 -37q-53 0 -95.5 37t-42.5 100zM231 887q0 53 40 95t98 42q53 0 94 -40t41 -97.5t-40 -96t-95 -38.5q-59 0 -98.5 41t-39.5 94z" />
<glyph unicode="&#xa2;" d="M78 485q0 209 138 342.5t359 153.5v190h156v-188q76 -2 112 -6t105.5 -18.5t103 -50.5t33.5 -91q0 -47 -30.5 -76.5t-75.5 -29.5q-18 0 -37.5 6t-42 30.5t-25.5 65.5l-143 6v-665q68 4 116 27.5t66.5 47t33 50t18.5 30.5q12 10 92 10q51 4 51 -24q0 -39 -57 -123 q-109 -150 -320 -178v-193h-156v191q-221 18 -359 151t-138 342zM279 489q0 -131 78.5 -215t217.5 -108v647q-152 -18 -224 -106.5t-72 -217.5z" />
<glyph unicode="&#xa3;" horiz-adv-x="1505" d="M129 125q0 86 85 123t202 37q61 0 133 -11q10 51 10 105v256h-143q-31 0 -39 12t-8 43v49q0 31 11 40t36 9h143v213q0 6 -1 22.5t-1 23.5q0 129 42 221t109.5 136t133 63.5t133.5 19.5q180 0 287.5 -129t107.5 -283q0 -59 -32.5 -85.5t-71.5 -26.5q-43 0 -74 28.5 t-31 75.5q0 49 43 86q-68 180 -229 180q-78 0 -128 -28.5t-69.5 -79.5t-24.5 -88t-5 -86v-263h210q29 -2 36 -13t7 -42v-49q0 -31 -9 -40t-36 -9h-208v-258q0 -82 -21 -146l70 -20q70 -20 112.5 -30.5t108 -23t108.5 -12.5q53 0 89 21.5t46.5 46.5t18.5 52.5t10 31.5 q14 10 60 10h12q33 0 45 -1t20.5 -10t8.5 -28q0 -100 -98.5 -189t-264.5 -89q-51 0 -122.5 12t-117 23.5t-121 34t-85.5 24.5q-121 -94 -297 -94q-92 0 -146.5 37t-54.5 98z" />
<glyph unicode="&#xa4;" horiz-adv-x="1667" d="M106 -43q0 12 6.5 24.5t25 33t38.5 39.5l66 65l88 88v4q-133 166 -133 412q0 244 133 411v2q-172 170 -198 199t-26 53.5t17.5 42t42.5 17.5q12 0 24.5 -6.5t36 -27t42.5 -39.5l66 -67l83 -84h2q164 131 409 131q248 0 414 -131h2q201 203 221 215q12 8 29 9 q27 0 44 -18.5t17 -43.5q0 -8 -3 -16l-5 -14q-2 -5 -9 -13t-11 -12l-14 -13l-13 -14l-168 -168v-2q131 -166 131 -413q0 -246 -131 -410v-2l86 -86q100 -100 118.5 -121.5t18.5 -42.5q0 -25 -17 -43t-44 -18q-12 0 -23.5 5t-32 23.5t-40 40t-64.5 65.5l-90 89h-2 q-168 -133 -412 -133q-246 0 -411 133h-2q-201 -201 -219 -213q-16 -10 -33 -10q-23 0 -41.5 17t-18.5 42zM322 623q0 -238 139 -374t368 -136q238 0 375 139t137 371q0 236 -139 373t-368 137q-238 0 -375 -139.5t-137 -370.5z" />
<glyph unicode="&#xa5;" horiz-adv-x="1734" d="M43 1268v155h504v-155h-62l205 -273h404l202 273h-59v155h453v-155h-199l-205 -273h291q41 0 49 -2q57 -18 57 -75q0 -29 -18 -49.5t-43 -24.5q-14 -2 -43 -2h-410l-66 -89l-91 -121q-41 -54 -45 -67q-2 -8 -2 -53h610q109 0 108 -78q0 -55 -53 -72q-10 -4 -55 -4h-610 v-204h157v-154h-512v154h160v204h-612q-109 0 -109 76q0 55 53 72q16 6 56 6h612v18q0 35 -31 76q-137 184 -158.5 210t-48.5 26h-385q-98 0 -98 78q0 57 55 71q10 4 50 4h292l-204 273h-199zM809 842l84 -113l82 113h-166z" />
<glyph unicode="&#xa6;" horiz-adv-x="393" d="M133 248q0 82 61.5 82t61.5 -80v-680q0 -82 -59 -82q-63 0 -64 80v680zM133 774v674q0 86 61.5 86t61.5 -80v-678q0 -82 -61.5 -82t-61.5 80z" />
<glyph unicode="&#xa7;" horiz-adv-x="1046" d="M162 524q0 160 147 281q-147 125 -147 280q0 145 104.5 247t255.5 102q137 0 231.5 -86t94.5 -197q0 -53 -31 -75.5t-63 -22.5q-39 0 -67 25.5t-28 66.5q0 27 19 57q-63 76 -158 76q-86 0 -155.5 -55.5t-69.5 -132.5q0 -51 38 -91.5t82 -59.5t113.5 -46t100.5 -43 q35 -16 67.5 -40t79.5 -67t76 -106.5t29 -136.5q0 -162 -146 -281q145 -121 146 -280q0 -145 -104.5 -247t-254.5 -102q-139 0 -233 85t-94 196q0 53 30.5 76.5t65.5 23.5q39 0 65.5 -25.5t26.5 -66.5q0 -29 -16 -57q57 -76 157 -76q86 0 155 55.5t69 135.5q0 49 -37 89 t-81 59t-115 46t-101 43q-252 131 -252 350zM295 526q0 -68 70.5 -121t142.5 -71l70 -19q45 0 108.5 52.5t63.5 130.5q0 68 -72 121t-141 71l-72 19q-45 0 -107.5 -52.5t-62.5 -130.5z" />
<glyph unicode="&#xa8;" d="M223 1286q0 53 39 94t96.5 41t96.5 -40t39 -95q0 -57 -40 -97t-96 -40q-57 0 -96 41t-39 96zM680 1286q0 57 40 96t95 39t96 -39t41 -96q0 -55 -40 -96t-97 -41q-53 0 -94 40t-41 97z" />
<glyph unicode="&#xa9;" horiz-adv-x="2617" d="M653 497.5q0 233.5 177.5 377t467.5 143.5q207 0 365 -115q88 100 102 109q12 6 27 6q14 0 23.5 -4t12.5 -14.5t3 -16.5v-22v-316q0 -20 -8 -30.5t-16.5 -12.5t-26.5 -2h-17q-61 0 -71.5 5t-20.5 42q-23 86 -103.5 151.5t-211.5 65.5q-119 0 -211 -24.5t-144.5 -61.5 t-86 -88t-45 -97t-11.5 -95t11.5 -94.5t45 -96.5t87 -88t145.5 -61.5t211 -24.5q127 0 215 53.5t102 147.5q4 29 13.5 37t31.5 8q4 0 8.5 -1t8.5 -1h6q6 0 17.5 1t15.5 1q55 0 55 -37q0 -150 -148.5 -257.5t-384.5 -107.5q-291 0 -468 143.5t-177 377zM129 514 q0 201 69.5 382t208 331.5t372 241t534.5 90.5q526 0 849.5 -289t323.5 -758q0 -160 -42 -308.5t-136 -283.5t-229 -235.5t-335 -160t-441 -59.5q-528 0 -851 289t-323 760zM254 512q0 -418 284.5 -670t768.5 -252q492 0 773 255t281 667q0 418 -285.5 670t-768.5 252 q-494 0 -773.5 -256t-279.5 -666z" />
<glyph unicode="&#xaa;" horiz-adv-x="1046" d="M53 567q0 29 19.5 50.5t48.5 25.5q14 2 47 2h715q53 0 75 -16q31 -27 31 -62q0 -78 -96 -78h-746q-55 0 -74.5 25.5t-19.5 52.5zM94 967q0 45 36 68.5t114 37.5q156 31 379 31v61q0 131 -54 185q-47 49 -131 49q-10 0 -30.5 -1t-30.5 -1q2 -66 -30 -94.5t-75 -28.5 q-41 0 -72.5 28.5t-31.5 77.5q0 63 50 104.5t108.5 54.5t124 13t125 -17t116 -57t89 -119t32.5 -188q0 -8 -1 -26.5t-1 -28.5v-186q47 -6 109 -6h18q47 0 60.5 -13.5t13.5 -60.5v-21q-2 -43 -17.5 -52t-64.5 -9h-49q-119 0 -172.5 16.5t-61.5 34t-8 64.5 q-143 -127 -336 -127q-102 0 -155.5 70.5t-53.5 140.5zM285 967q25 -55 133 -55.5t174 77.5q-219 1 -307 -22z" />
<glyph unicode="&#xab;" horiz-adv-x="1308" d="M264 483q0 6 4 13.5t16 17.5l24 22l40 34l53 48q98 92 172 172t97.5 112t46 48.5t49.5 16.5h53q47 0 47 -23q0 -27 -126 -170t-279 -291q115 -104 260 -269t145 -189.5t-45 -24.5h-53q-14 0 -24.5 2t-18.5 7t-12 9.5t-13.5 16.5t-15.5 18q-129 145 -239 249l-145 135 q-36 32 -36 46zM666 483q0 6 3 12.5t11 15.5t15 15t25.5 23.5t31.5 28.5q88 86 149.5 155.5t78.5 94t34.5 35.5t48.5 11h49q45 0 45 -24q0 -18 -92 -128t-221 -239q100 -94 206.5 -219t106.5 -147q0 -25 -45 -25h-55q-20 0 -28.5 3t-18 11.5t-30.5 34.5l-51 61 q-30 34 -94 100l-147 147q-22 22 -22 34z" />
<glyph unicode="&#xac;" horiz-adv-x="1570" d="M131 739q0 47 49 60q12 2 37 2h1137q39 0 58.5 -15.5t22.5 -31t3 -43.5v-486q0 -92 -62 -92q-39 0 -57 39q-4 12 -4 57v449h-1110q-74 2 -74 61z" />
<glyph unicode="&#xad;" horiz-adv-x="393" d="M25 393v180h626v-180h-626z" />
<glyph unicode="&#xae;" horiz-adv-x="2617" d="M659 0v154h158v688h-158v153h558q135 0 239.5 -19.5t167 -48t103 -68.5t55 -77t14.5 -73q0 -68 -48 -127.5t-134 -96.5q18 -16 32 -31l22 -27q9 -11 16.5 -30.5l10.5 -27t6 -33t3 -31.5t2 -41t2 -45q2 -43 24.5 -64.5t98.5 -21.5q37 0 53.5 14.5t17.5 33t15 32.5t47 14 h27q68 0 67 -47q0 -63 -54 -133t-171 -70q-90 0 -155.5 17.5t-98.5 41t-51.5 58.5t-21.5 58.5t-3 52.5v84q0 66 -53 98.5t-209 32.5h-229v-266h159v-154h-512zM1012 575h245q332 0 334 134q-2 133 -356 133h-223v-267zM129 514q0 201 69.5 382t208 331.5t372 241t534.5 90.5 q526 0 849.5 -289t323.5 -758q0 -160 -42 -308.5t-136 -283.5t-229 -235.5t-335 -160t-441 -59.5q-528 0 -851 289t-323 760zM254 512q0 -418 284.5 -670t768.5 -252q492 0 773 255t281 667q0 418 -285.5 670t-768.5 252q-494 0 -773.5 -256t-279.5 -666z" />
<glyph unicode="&#xaf;" d="M164 1284v160h850v-160h-850z" />
<glyph unicode="&#xb0;" horiz-adv-x="784" d="M131 1161.5q0 112.5 71.5 186t190.5 73.5q117 0 188.5 -73.5t71.5 -186.5q0 -115 -71.5 -187.5t-190.5 -72.5q-117 0 -188.5 74t-71.5 186.5zM256 1161q0 -66 38 -101.5t97 -35.5q63 0 100 37t37 100q0 66 -37.5 101.5t-97.5 35.5q-66 0 -101.5 -37t-35.5 -100z" />
<glyph unicode="&#xb1;" horiz-adv-x="1830" d="M131 -16q0 63 86 63h635v598h-629q-33 0 -47 4q-45 14 -45 60q0 61 82 61h639v629q0 33 4 47q14 45 59 45q43 0 58 -45q4 -14 4 -47v-629h627q35 0 49 -4q45 -14 45 -57q0 -45 -45 -60q-14 -4 -49 -4h-627v-598h631q90 0 90 -63q0 -59 -82 -62h-1403q-82 1 -82 62z" />
<glyph unicode="&#xb2;" horiz-adv-x="1046" d="M117 711v125q0 33 17.5 44t131.5 66q182 90 242.5 112.5t87.5 35.5q129 59 129 153q0 90 -93 123t-302 33q4 -25 4 -41q0 -47 -31 -78t-78 -31q-49 0 -78.5 34t-29.5 81q0 76 79.5 133.5t286.5 57.5q203 0 324 -84t121 -226q0 -51 -24.5 -91t-49.5 -56.5t-61 -36.5h135 l-51 -354h-760zM399 905h254l90 2q8 25 29 148h-2l-186 -66z" />
<glyph unicode="&#xb3;" horiz-adv-x="1046" d="M96 893q0 49 32 81t79 32t78.5 -31t31.5 -80q0 -14 -4 -39q63 -12 191 -12q201 0 231 90q6 18 2 41q-23 100 -233 100h-60q-33 0 -43 7.5t-10 35.5v29q0 53 5 66.5t34 17.5l16 2q16 0 33 1t41.5 4t45 8t43 14.5t38 20.5t25.5 28.5t10 38.5q0 78 -154 77q-106 0 -184 -71 q33 -41 33 -80q0 -49 -31 -79t-78 -30q-45 0 -75.5 32t-30.5 83q0 121 106.5 200t257.5 79q162 0 258.5 -58.5t96.5 -154.5q0 -121 -129 -197q195 -57 194 -193q0 -113 -115 -184q-113 -72 -335 -72q-72 0 -124.5 4.5t-124 21.5t-111.5 59t-40 108z" />
<glyph unicode="&#xb4;" d="M483 1210q305 203 324 209q12 6 31 6q37 0 65.5 -30.5t28.5 -67.5q0 -8 -2 -16t-3 -15.5t-7.5 -14.5t-9.5 -11t-13 -11.5t-15 -10.5l-20 -11l-21 -12l-24.5 -13.5t-28.5 -13.5l-227 -121z" />
<glyph unicode="&#xb5;" horiz-adv-x="1318" d="M94 -244h154v975q-2 45 -25.5 57.5t-105.5 12.5h-23v155l342 23v-709q0 -78 33 -102.5t151.5 -24.5t200.5 53.5t80 163.5v367q0 47 -23.5 60.5t-111.5 13.5h-18v155l342 23v-750q0 -47 24.5 -61t110.5 -14h18v-154l-336 -10v139q-147 -139 -405 -139q-43 0 -66 2v-236 h154v-155h-496v155z" />
<glyph unicode="&#xb6;" horiz-adv-x="1439" d="M129 936q0 205 156.5 334t365.5 149q66 4 94 4h531q94 0 94 -61q0 -63 -82 -64h-112v-1572h100q45 0 59 -9q35 -16 35 -55q0 -23 -18.5 -42t-61.5 -19h-643q-78 2 -78 63q0 35 33 51q16 10 60 11h102v725q-270 14 -452.5 144t-182.5 341zM887 -274h164v1572h-164v-1572z " />
<glyph unicode="&#xb7;" horiz-adv-x="569" d="M145 512q0 57 42 96t95.5 39t94.5 -39t41 -96t-41 -97t-94 -40q-59 0 -98.5 41t-39.5 96z" />
<glyph unicode="&#xb8;" horiz-adv-x="1046" d="M231 -293q205 0 298.5 17.5t93.5 70.5q-2 29 -20.5 47.5t-54.5 24.5t-58.5 8t-61.5 2v156q180 -2 282.5 -67.5t102.5 -174.5q0 -43 -13.5 -78t-44 -59.5t-59 -42t-82 -28.5t-88 -17t-100.5 -9t-96.5 -4.5t-98.5 -1.5v156z" />
<glyph unicode="&#xb9;" horiz-adv-x="1046" d="M162 1249v156q96 2 173 23.5t113.5 45t67.5 50t35 28.5q10 6 33 7h4q35 0 46 -14.5t11 -51.5v-627h236v-155h-686v155h262v457q-125 -72 -295 -74z" />
<glyph unicode="&#xba;" horiz-adv-x="1046" d="M53 567q0 29 19.5 50.5t48.5 25.5q14 2 47 2h715q53 0 75 -16q31 -27 31 -62q0 -78 -96 -78h-746q-55 0 -74.5 25.5t-19.5 52.5zM63 1143q0 166 116 287.5t343 121.5q207 0 332 -113.5t125 -297.5q0 -156 -114.5 -269.5t-344.5 -113.5q-209 0 -333 105.5t-124 279.5z M264 1169q0 -117 55.5 -182t198.5 -65q119 0 189.5 50t70.5 191q0 113 -56 174.5t-200 61.5q-123 0 -190.5 -50.5t-67.5 -179.5z" />
<glyph unicode="&#xbb;" horiz-adv-x="1308" d="M147 114.5q0 22.5 90.5 130t223.5 238.5q-98 94 -206 220t-108 148.5t48 22.5h53q10 0 15 -1t10.5 -1t10.5 -4t10 -7t13 -13l16 -19l21 -25l29 -34q63 -76 133 -144l101 -100q32 -31 32 -43q0 -6 -3 -12t-11 -14l-17 -17q-8 -8 -25.5 -23.5t-29.5 -27.5 q-74 -72 -130 -133t-75.5 -88t-37 -47.5t-30 -24.5t-38.5 -4h-41q-54 0 -54 22.5zM438 24.5q0 24.5 127 169t279 289.5q-119 109 -262.5 272t-143.5 187.5t47 24.5h52q27 0 42 -8.5t42 -39.5l61 -74q35 -42 122 -129t202 -188q35 -31 34 -45q0 -6 -4 -13t-15 -17l-25 -22 l-40 -35l-53 -48q-84 -78 -149.5 -146.5t-93.5 -102.5l-50 -59q-23 -26 -37 -33t-36 -7h-52q-47 0 -47 24.5z" />
<glyph unicode="&#xbc;" horiz-adv-x="1046" d="M4 567q0 27 17.5 43.5t39.5 18.5q12 2 39 2h844q45 0 60 -8q35 -14 34 -56q0 -59 -80 -59h-878q-76 0 -76 59zM63 -72q2 23 8.5 33t34.5 37l379 352q35 33 90 33h101q35 0 50 -10.5t17 -44.5v-371h236v-154h-236v-47h230v-155h-643v155h229v47h-496v125zM162 1329v156 q147 0 233 18.5t123 37t70 18.5q31 0 43 -12.5t14 -43.5v-594h236v-155h-686v155h262v453q-115 -33 -295 -33zM287 -43h284v281q-27 -33 -73 -79l-115 -110z" />
<glyph unicode="&#xbd;" horiz-adv-x="1046" d="M4 567q0 27 17.5 43.5t39.5 18.5q12 2 39 2h844q45 0 60 -8q35 -14 34 -56q0 -59 -80 -59h-878q-76 0 -76 59zM115 -291q0 25 8 35t43 31l321 162q8 4 44 18t54.5 22.5t49.5 25.5t46 33.5t28.5 40t13.5 48.5q0 72 -89 98.5t-286 26.5h-14q-2 -45 -24.5 -71.5t-42 -33 t-42.5 -6.5q-45 0 -76.5 31t-31.5 78q0 53 30.5 87t88 48t102.5 18.5t108 4.5h39q242 0 341.5 -85t99.5 -192q0 -111 -133 -174h133l-52 -354h-759v108zM162 1329v156q147 0 233 18.5t123 37t70 18.5q31 0 43 -12.5t14 -43.5v-594h236v-155h-686v155h262v453 q-115 -33 -295 -33zM422 -205h231l90 2q14 51 27 150l-152 -58z" />
<glyph unicode="&#xbe;" horiz-adv-x="1046" d="M4 567q0 27 17.5 43.5t39.5 18.5q12 2 39 2h844q45 0 60 -8q35 -14 34 -56q0 -59 -80 -59h-878q-76 0 -76 59zM63 -72q2 23 8.5 33t34.5 37l379 352q35 33 90 33h101q35 0 50 -10.5t17 -44.5v-371h236v-154h-236v-47h230v-155h-643v155h229v47h-496v125zM96 922 q0 51 32 81.5t79 30.5q53 0 81.5 -30.5t28.5 -83.5q0 -12 -4 -33q70 -10 179 -10h32q119 0 167 32.5t48 73.5q0 106 -235 107h-64q-49 0 -49 43v43q0 43 5 55t34 14q250 16 250 109q0 72 -162 71h-2q-90 0 -154 -18q14 -31 15 -59q0 -47 -32 -78t-75 -31q-47 0 -77.5 30.5 t-30.5 82.5q0 80 83 143.5t277 63.5q193 0 276 -63.5t83 -143.5q0 -51 -30 -97.5t-45 -57.5l-48 -34q188 -57 188 -182q0 -94 -100.5 -171t-323.5 -77h-20q-78 0 -130.5 4t-125 20.5t-111.5 57.5t-39 107zM287 -43h284v281q-27 -33 -73 -79l-115 -110z" />
<glyph unicode="&#xbf;" horiz-adv-x="1112" d="M129 -109q0 49 10.5 88t32 70t35.5 47.5t43 39t31 24.5q164 145 163 334v32q0 41 10.5 50.5t47.5 9.5q72 0 85 -7.5t13 -48.5v-38q0 -119 -35 -219.5t-69.5 -145.5t-84.5 -94l-53 -51q-29 -35 -28 -95q0 -88 47 -115.5t143 -27.5q180 0 277 72v2q-27 35 -27 73 q0 47 29.5 76t74.5 29q43 0 74 -29.5t31 -79.5q0 -133 -129 -215t-330 -82q-119 0 -201.5 29t-120.5 78t-53.5 95t-15.5 99zM385 887q0 53 40 95t97 42q53 0 94 -40t41 -97.5t-39.5 -96t-95.5 -38.5q-57 0 -97 40t-40 95z" />
<glyph unicode="&#xc0;" horiz-adv-x="1734" d="M559 1724q0 35 25.5 66t66.5 31q25 0 211 -80l162 -70l-55 -145q-61 20 -158 49q-164 51 -208 74.5t-44 74.5zM82 0v154h174l502 1210q14 33 30.5 46t53.5 13h43q43 0 59.5 -14t36.5 -66l494 -1189h174v-154h-492v154h109l-111 268h-623l-110 -268h108v-154h-448z M598 578h492l-211 522l-35 100q-33 -96 -138.5 -357t-107.5 -265z" />
<glyph unicode="&#xc1;" horiz-adv-x="1734" d="M643 1671q348 150 367 150h6q39 0 64.5 -31t25.5 -66q0 -29 -11.5 -47t-48 -34.5t-72.5 -28.5t-121 -38l-157 -50zM82 0v154h174l502 1210q14 33 30.5 46t53.5 13h43q43 0 59.5 -14t36.5 -66l494 -1189h174v-154h-492v154h109l-111 268h-623l-110 -268h108v-154h-448z M598 578h492l-211 522l-35 100q-33 -96 -138.5 -357t-107.5 -265z" />
<glyph unicode="&#xc2;" horiz-adv-x="1734" d="M512 1649l352 399h2l353 -399l-119 -99l-234 320h-2l-231 -320zM82 0v154h174l502 1210q14 33 30.5 46t53.5 13h43q43 0 59.5 -14t36.5 -66l494 -1189h174v-154h-492v154h109l-111 268h-623l-110 -268h108v-154h-448zM598 578h492l-211 522l-35 100q-33 -96 -138.5 -357 t-107.5 -265z" />
<glyph unicode="&#xc3;" horiz-adv-x="1734" d="M408 1774q10 18 32.5 55t32.5 52l29 43q18 28 29.5 40l29 29.5t32.5 23.5t34.5 12.5t40.5 6.5q59 0 176 -59.5t176 -59.5q43 0 82 25.5t51 40.5l41 53l129 -80l-34 -55l-32 -54q-8 -14 -27.5 -42.5t-30.5 -40.5l-29 -29q-17 -18 -32.5 -24.5t-35 -12.5t-39.5 -6 q-61 0 -177 59t-175 59q-14 0 -28.5 -2t-27.5 -8l-22 -11q-10 -5 -21.5 -15.5t-18.5 -15.5t-17.5 -17t-13.5 -17.5t-12 -17.5t-11 -14zM82 0v154h174l502 1210q14 33 30.5 46t53.5 13h43q43 0 59.5 -14t36.5 -66l494 -1189h174v-154h-492v154h109l-111 268h-623l-110 -268 h108v-154h-448zM598 578h492l-211 522l-35 100q-33 -96 -138.5 -357t-107.5 -265z" />
<glyph unicode="&#xc4;" horiz-adv-x="1734" d="M500 1661q0 55 41 95t96 40q53 0 94 -39t41 -96q0 -55 -40 -95t-95 -40q-59 0 -98 40t-39 95zM958 1661q0 55 39 95t97 40q55 0 96 -39t41 -96t-41 -97t-94 -40q-57 0 -97.5 41t-40.5 96zM82 0v154h174l502 1210q14 33 30.5 46t53.5 13h43q43 0 59.5 -14t36.5 -66 l494 -1189h174v-154h-492v154h109l-111 268h-623l-110 -268h108v-154h-448zM598 578h492l-211 522l-35 100q-33 -96 -138.5 -357t-107.5 -265z" />
<glyph unicode="&#xc5;" horiz-adv-x="1734" d="M602 1718q0 141 75 219t187 78q119 0 190.5 -81t71.5 -214q0 -139 -73.5 -218t-188.5 -79q-117 0 -189.5 81t-72.5 214zM733 1720q0 -72 27.5 -106.5t99.5 -34.5q78 0 106.5 33t28.5 106.5t-27.5 108.5t-101.5 35q-76 0 -104.5 -34t-28.5 -108zM82 0v154h174l502 1210 q14 33 30.5 46t53.5 13h43q43 0 59.5 -14t36.5 -66l494 -1189h174v-154h-492v154h109l-111 268h-623l-110 -268h108v-154h-448zM598 578h492l-211 522l-35 100q-33 -96 -138.5 -357t-107.5 -265z" />
<glyph unicode="&#xc6;" horiz-adv-x="2111" d="M82 0v154h174l465 1114h-47v155h1251l51 -473h-153q-16 154 -28.5 212.5t-27 75.5t-51.5 22q-63 8 -295 8h-262v-506h187q145 0 172.5 9t31.5 60q2 35 2 105v16h156v-536h-156v16q0 109 -9 137.5t-42 32.5q-59 6 -203 6q-25 0 -69.5 -1t-69.5 -1v-452h295q274 0 323.5 15 t67.5 103q2 8 2 13q18 86 41 241h154l-76 -526h-1122v154h119v452h-351l-188 -452h106v-154h-448zM676 762h287v506h-74z" />
<glyph unicode="&#xc7;" horiz-adv-x="1701" d="M129 711q0 332 218 532.5t571 200.5q264 0 468 -174q76 123 98.5 148.5t45.5 25.5q39 0 39 -47v-459q0 -31 -11.5 -40t-35.5 -9q-6 0 -11 2q-57 0 -74.5 5t-21.5 15.5t-12 50t-31 87.5q-43 90 -140 165.5t-253 75.5q-90 0 -174 -15t-172 -56t-152.5 -103.5t-105.5 -168 t-41 -239t41 -236.5t105.5 -165.5t152.5 -102.5t173 -55.5t175 -15.5q164 0 290 87t140 237q6 39 19 45q12 6 34 6h47q33 0 44.5 -8t11.5 -37q0 -35 -9.5 -78t-41 -104.5t-84 -114.5t-147.5 -102.5t-220 -73.5q150 -66 149 -201q0 -66 -35.5 -112t-86 -69.5t-136.5 -36.5 t-153.5 -16.5t-169.5 -3.5v156q205 0 298 17.5t93 70.5q-2 29 -20.5 47.5t-53.5 24.5t-58.5 8t-62.5 2v105q-340 35 -520 233.5t-180 495.5z" />
<glyph unicode="&#xc8;" horiz-adv-x="1501" d="M518 1722q0 35 25.5 67t66.5 32q6 0 12.5 -1t15.5 -3t18.5 -6.5t26.5 -11.5l34 -13q16 -6 45 -20l57 -25l74 -32l88 -38l-53 -145l-101 30l-84 26l-66 21q-36 11 -55.5 18t-40 17.5t-30.5 17.5t-18.5 18.5t-11.5 22.5t-3 25zM150 0v154h159v1108h-159v155h1169l51 -473 h-156q-16 154 -27 211t-27.5 75.5t-57.5 22.5q-70 8 -324 9h-270v-449h117q160 0 188.5 9t32.5 61q2 35 2 104v17h153v-537h-153v18q0 106 -7 135t-40 33q-51 6 -176 6q-18 0 -57.5 -1t-59.5 -1v-503h317q150 0 219.5 1t111.5 11t49 19.5t18 35.5q20 59 57 305h156l-78 -526 h-1208z" />
<glyph unicode="&#xc9;" horiz-adv-x="1501" d="M633 1671q348 150 366 150h7q39 0 64.5 -32t25.5 -67q0 -20 -4.5 -33.5t-19.5 -25.5t-31.5 -20.5t-53.5 -20.5l-73 -24l-101 -31l-127 -41zM150 0v154h159v1108h-159v155h1169l51 -473h-156q-16 154 -27 211t-27.5 75.5t-57.5 22.5q-70 8 -324 9h-270v-449h117 q160 0 188.5 9t32.5 61q2 35 2 104v17h153v-537h-153v18q0 106 -7 135t-40 33q-51 6 -176 6q-18 0 -57.5 -1t-59.5 -1v-503h317q150 0 219.5 1t111.5 11t49 19.5t18 35.5q20 59 57 305h156l-78 -526h-1208z" />
<glyph unicode="&#xca;" horiz-adv-x="1501" d="M406 1649l352 399h2l352 -399l-121 -99l-231 320h-2l-234 -320zM150 0v154h159v1108h-159v155h1169l51 -473h-156q-16 154 -27 211t-27.5 75.5t-57.5 22.5q-70 8 -324 9h-270v-449h117q160 0 188.5 9t32.5 61q2 35 2 104v17h153v-537h-153v18q0 106 -7 135t-40 33 q-51 6 -176 6q-18 0 -57.5 -1t-59.5 -1v-503h317q150 0 219.5 1t111.5 11t49 19.5t18 35.5q20 59 57 305h156l-78 -526h-1208z" />
<glyph unicode="&#xcb;" horiz-adv-x="1501" d="M393 1661q0 53 39 94t96.5 41t97.5 -40t40 -95q0 -57 -40 -97t-96 -40q-59 0 -98 41t-39 96zM852 1661q0 55 39 95t96 40q55 0 95 -38t40 -97t-40 -98t-95 -39q-57 0 -96 41t-39 96zM150 0v154h159v1108h-159v155h1169l51 -473h-156q-16 154 -27 211t-27.5 75.5 t-57.5 22.5q-70 8 -324 9h-270v-449h117q160 0 188.5 9t32.5 61q2 35 2 104v17h153v-537h-153v18q0 106 -7 135t-40 33q-51 6 -176 6q-18 0 -57.5 -1t-59.5 -1v-503h317q150 0 219.5 1t111.5 11t49 19.5t18 35.5q20 59 57 305h156l-78 -526h-1208z" />
<glyph unicode="&#xcc;" horiz-adv-x="819" d="M135 1724q0 35 25.5 67t66.5 32q6 0 12.5 -1t15.5 -3t18.5 -6.5t26.5 -11.5l34 -13q16 -6 45 -20l57 -25l74 -32l88 -38l-53 -145l-101 31l-84 25l-66 21q-36 11 -55.5 18t-40 17.5t-30.5 17.5t-18.5 18.5t-11.5 22.5t-3 25zM141 0v154h168v1114h-168v155h535v-155h-166 v-1114h166v-154h-535z" />
<glyph unicode="&#xcd;" horiz-adv-x="819" d="M205 1671q348 150 366 150h7q39 0 64.5 -32t25.5 -67q0 -20 -4.5 -33.5t-19.5 -25.5t-31.5 -20.5t-53.5 -20.5l-73 -24l-101 -31l-127 -41zM141 0v154h168v1114h-168v155h535v-155h-166v-1114h166v-154h-535z" />
<glyph unicode="&#xce;" horiz-adv-x="819" d="M55 1649l353 399h2l352 -399l-119 -99l-233 320h-2l-232 -320zM141 0v154h168v1114h-168v155h535v-155h-166v-1114h166v-154h-535z" />
<glyph unicode="&#xcf;" horiz-adv-x="819" d="M43 1661q0 55 40 95t95 40t96 -39t41 -96t-41 -97t-94 -40q-59 0 -98 41t-39 96zM502 1661q0 57 40 96t95 39t96 -39t41 -96q0 -59 -41 -98t-96 -39q-57 0 -96 41t-39 96zM141 0v154h168v1114h-168v155h535v-155h-166v-1114h166v-154h-535z" />
<glyph unicode="&#xd0;" horiz-adv-x="1783" d="M152 0v154h159v467h-104q-37 0 -46 16t-9 49v23q0 45 14 56t55 11h90v492h-159v155h737q367 0 563 -196q199 -199 199 -527q0 -297 -172 -484t-467 -212q-41 -4 -121 -4h-739zM506 154h350q594 0 594 544q0 569 -596 570h-348v-492h405q27 0 40.5 -11t15.5 -21.5t2 -32.5 v-29q-2 -33 -14.5 -46t-45.5 -15h-403v-467z" />
<glyph unicode="&#xd1;" horiz-adv-x="1820" d="M451 1774q10 18 32.5 55t32.5 52l29 43q18 28 29.5 40l29 29.5t32.5 23.5t34.5 12.5t40.5 6.5q59 0 176 -59.5t176 -59.5q43 0 82 25.5t51 40.5l41 53l129 -80l-34 -55l-32 -54q-8 -14 -27.5 -42.5t-30.5 -40.5l-29 -29q-17 -18 -32.5 -24.5t-35 -12.5t-39.5 -6 q-61 0 -177 59t-175 59q-14 0 -28.5 -2t-27.5 -8l-22 -11q-10 -5 -21.5 -15.5t-18.5 -15.5t-17.5 -17t-13.5 -17.5t-12 -17.5t-11 -14zM154 0v154h159v1114h-159v155h311q27 0 39 -7t35 -34l813 -1056v942h-160v155h471v-155h-160v-1198q0 -23 -2 -35t-14 -23.5t-39 -11.5 h-37q-29 0 -41 7t-33 34l-872 1133v-1020h160v-154h-471z" />
<glyph unicode="&#xd2;" horiz-adv-x="1746" d="M631 1722q0 35 25.5 67t66.5 32q6 0 12 -1t15.5 -3t18.5 -6.5t27 -11.5l33 -13q16 -6 45 -20l58 -25l74 -32l88 -38l-54 -145l-100 30l-84 26l-66 21q-36 11 -55.5 18t-40 17.5t-31 17.5t-18.5 18.5t-11 22.5t-3 25zM129 700q0 336 203 540t542 204q336 0 538 -204 t202 -540q0 -328 -203 -525.5t-543 -197.5q-334 0 -536.5 197.5t-202.5 525.5zM334 737q0 -276 143.5 -431.5t392.5 -155.5q254 0 396.5 156.5t142.5 430.5q0 266 -148.5 404.5t-388.5 138.5q-242 0 -390 -137.5t-148 -405.5z" />
<glyph unicode="&#xd3;" horiz-adv-x="1746" d="M649 1671q348 150 367 150h6q39 0 64.5 -32t25.5 -67q0 -20 -4 -33.5t-19.5 -25.5t-32 -20.5t-52.5 -20.5l-73 -24l-102 -31l-127 -41zM129 700q0 336 203 540t542 204q336 0 538 -204t202 -540q0 -328 -203 -525.5t-543 -197.5q-334 0 -536.5 197.5t-202.5 525.5z M334 737q0 -276 143.5 -431.5t392.5 -155.5q254 0 396.5 156.5t142.5 430.5q0 266 -148.5 404.5t-388.5 138.5q-242 0 -390 -137.5t-148 -405.5z" />
<glyph unicode="&#xd4;" horiz-adv-x="1746" d="M518 1649l352 399h2l353 -399l-119 -99l-234 320h-2l-231 -320zM129 700q0 336 203 540t542 204q336 0 538 -204t202 -540q0 -328 -203 -525.5t-543 -197.5q-334 0 -536.5 197.5t-202.5 525.5zM334 737q0 -276 143.5 -431.5t392.5 -155.5q254 0 396.5 156.5t142.5 430.5 q0 266 -148.5 404.5t-388.5 138.5q-242 0 -390 -137.5t-148 -405.5z" />
<glyph unicode="&#xd5;" horiz-adv-x="1746" d="M414 1774q10 16 29.5 50t28.5 47t25.5 39.5t26.5 38.5l26 28q15 17 27.5 25.5t28 18t32.5 12.5t36 3q59 0 176 -59.5t176 -59.5q43 0 81 25.5t51 42t40 53.5l131 -82q-10 -16 -29.5 -50t-28.5 -47.5l-25.5 -40t-26.5 -37.5l-26 -29q-15 -17 -27.5 -25.5t-28 -17.5 t-33 -12t-35.5 -3q-59 0 -176 59t-176 59q-16 0 -32.5 -4t-29 -9t-25.5 -15l-22 -17q-8 -6 -20.5 -20t-16.5 -19.5l-14 -19.5t-12 -16zM129 700q0 336 203 540t542 204q336 0 538 -204t202 -540q0 -328 -203 -525.5t-543 -197.5q-334 0 -536.5 197.5t-202.5 525.5zM334 737 q0 -276 143.5 -431.5t392.5 -155.5q254 0 396.5 156.5t142.5 430.5q0 266 -148.5 404.5t-388.5 138.5q-242 0 -390 -137.5t-148 -405.5z" />
<glyph unicode="&#xd6;" horiz-adv-x="1746" d="M506 1661q0 53 40 94t97 41t96 -41t39 -94t-39 -95t-96 -42q-59 0 -98 41t-39 96zM965 1661q0 53 38.5 94t96.5 41q55 0 96 -39t41 -96q0 -55 -40 -96t-95 -41q-59 0 -98 41t-39 96zM129 700q0 336 203 540t542 204q336 0 538 -204t202 -540q0 -328 -203 -525.5 t-543 -197.5q-334 0 -536.5 197.5t-202.5 525.5zM334 737q0 -276 143.5 -431.5t392.5 -155.5q254 0 396.5 156.5t142.5 430.5q0 266 -148.5 404.5t-388.5 138.5q-242 0 -390 -137.5t-148 -405.5z" />
<glyph unicode="&#xd7;" horiz-adv-x="1830" d="M344 0q0 25 35 63l448 449l-448 449q-35 35 -35 61.5t18.5 43.5t40.5 17q14 0 28.5 -8t24 -16t24 -23.5t20.5 -19.5l415 -416l451 449q35 35 59 34q27 0 44.5 -18t17.5 -43q0 -20 -37 -64l-446 -446l448 -451q35 -35 35 -61q0 -23 -17.5 -41t-44 -18t-59.5 32l-451 451 l-450 -451q-33 -33 -62 -32q-25 0 -42 17t-17 42z" />
<glyph unicode="&#xd8;" horiz-adv-x="1830" d="M129 700q0 334 213 539t571 205q190 0 347 -62l120 185h2l138 -90l-113 -172q133 -90 213 -247t80 -356q0 -328 -214 -526.5t-568 -198.5q-184 0 -351 60l-118 -182l-140 92l111 168q-141 96 -216 247.5t-75 337.5zM319 702q0 -313 191 -454l661 1001q-117 41 -262 41 q-289 -2 -439.5 -157t-150.5 -431zM657 170q123 -39 254 -39q299 0 448.5 151.5t149.5 415.5q0 315 -192 473z" />
<glyph unicode="&#xd9;" horiz-adv-x="1777" d="M647 1724q0 35 25.5 66t66.5 31q25 0 211 -80l162 -70l-55 -145q-61 20 -158 49q-164 51 -208 74.5t-44 74.5zM150 1268v155h518v-155h-160v-770q0 -365 395 -365q410 0 410 365v770h-160v155h473v-155h-158v-768q0 -150 -54 -257.5t-143 -161.5t-181.5 -79t-190.5 -25 q-80 0 -156.5 13.5t-157.5 50.5t-140.5 93t-97.5 150.5t-38 213.5v770h-159z" />
<glyph unicode="&#xda;" horiz-adv-x="1777" d="M764 1671q348 150 366 150h5q41 0 66.5 -31t25.5 -66q0 -20 -5 -34.5t-21.5 -26.5t-35 -21.5t-55.5 -21.5l-73 -24l-98 -30q-62 -19 -122 -40zM150 1268v155h518v-155h-160v-770q0 -365 395 -365q410 0 410 365v770h-160v155h473v-155h-158v-768q0 -150 -54 -257.5 t-143 -161.5t-181.5 -79t-190.5 -25q-80 0 -156.5 13.5t-157.5 50.5t-140.5 93t-97.5 150.5t-38 213.5v770h-159z" />
<glyph unicode="&#xdb;" horiz-adv-x="1777" d="M547 1649l352 399h2l352 -399l-120 -99l-232 320h-2l-233 -320zM150 1268v155h518v-155h-160v-770q0 -365 395 -365q410 0 410 365v770h-160v155h473v-155h-158v-768q0 -150 -54 -257.5t-143 -161.5t-181.5 -79t-190.5 -25q-80 0 -156.5 13.5t-157.5 50.5t-140.5 93 t-97.5 150.5t-38 213.5v770h-159z" />
<glyph unicode="&#xdc;" horiz-adv-x="1777" d="M522 1661q0 57 42 96t95.5 39t94.5 -39t41 -96t-41 -97t-95 -40q-55 0 -96 39t-41 98zM981 1661q0 55 40 95t95 40t96 -39t41 -96q0 -53 -38.5 -95t-96.5 -42q-55 0 -96 39t-41 98zM150 1268v155h518v-155h-160v-770q0 -365 395 -365q410 0 410 365v770h-160v155h473 v-155h-158v-768q0 -150 -54 -257.5t-143 -161.5t-181.5 -79t-190.5 -25q-80 0 -156.5 13.5t-157.5 50.5t-140.5 93t-97.5 150.5t-38 213.5v770h-159z" />
<glyph unicode="&#xdd;" horiz-adv-x="1734" d="M741 1671q348 150 367 150h6q41 0 65.5 -31t24.5 -66q0 -14 -3 -26t-11 -22.5t-18.5 -18.5t-31 -17.5t-41 -16.5l-55 -18.5t-66.5 -20.5l-84 -25q-52 -16 -99 -33zM43 1268v155h504v-155h-62l408 -539l403 539h-59v155h453v-155h-199l-502 -666q-18 -25 -21 -36t-3 -48 v-364h157v-154h-512v154h160v378q0 33 -25 68l-503 668h-199z" />
<glyph unicode="&#xde;" horiz-adv-x="1456" d="M154 0v154h159v1114h-159v155h508v-155h-160v-80h325q225 0 360.5 -112.5t135.5 -297.5q0 -55 -12.5 -106t-48 -107.5t-91 -98.5t-150.5 -69.5t-220 -27.5h-299v-215h160v-154h-508zM502 524h233q178 0 271 58q117 70 116 198q0 43 -14 83t-50 80t-107.5 64.5 t-174.5 24.5h-274v-508z" />
<glyph unicode="&#xdf;" horiz-adv-x="1183" d="M86 0v154h154v659h-154v154h154v178q0 139 80.5 214t271.5 75q328 0 328 -287q0 -260 -107 -299q-2 0 -24.5 -5t-31.5 -11.5t-20.5 -31t-11.5 -65.5q0 -43 8 -68.5t25.5 -38t36 -16.5t50.5 -10t56 -14q86 -29 143.5 -108t57.5 -187q0 -147 -78 -225t-217 -78 q-80 0 -148 51q-2 -2 -8 -11l-8 -13q-2 -3 -9 -10t-12 -9l-14 -5q-8 -3 -16 -3q-18 0 -26.5 7t-10.5 17.5t-2 26.5v268q2 27 10 36t37 9h37h26h16q9 0 12 -4t8.5 -4t6.5 -8t2 -11t3 -17.5t4 -22.5q12 -78 30.5 -111t63.5 -33q47 0 84 30t37 99q0 102 -86 136q-6 2 -62.5 13 t-98.5 34.5t-77 74.5q-53 74 -53 179q0 250 219 274q-4 53 -5 104.5t-2 72t-6 41t-20 36.5q-41 43 -153 43h-6q-53 0 -87 -10t-47.5 -33t-17.5 -43t-4 -55v-1139h-338z" />
<glyph unicode="&#xe0;" horiz-adv-x="1150" d="M375 1327q0 37 27.5 67.5t64.5 30.5q10 0 17.5 -1t20.5 -8l26 -14q13 -7 41 -26l57 -38l82 -55l110 -73l-78 -133q-10 6 -134 72l-156 84q-78 39 -78 94zM94 287q0 86 60.5 149.5t164 95t210 46t225.5 14.5v47q0 111 -82 156q-59 35 -183 34q-41 0 -110 -4 q-2 -61 -36 -87.5t-71 -26.5q-43 0 -73.5 29.5t-30.5 76.5q0 166 338 166q66 0 124 -9t117.5 -32.5t100.5 -60.5t67.5 -98.5t26.5 -141.5v-428q2 -37 28.5 -47t112.5 -12q31 0 45.5 -10.5t14.5 -47.5v-35q0 -37 -13.5 -49t-46.5 -12h-57q-141 0 -191.5 29.5t-64.5 91.5 q-152 -133 -399 -133q-135 0 -206 95t-71 204zM285 291q0 -53 53 -100.5t156 -47.5q59 0 113.5 14.5t100.5 57.5t46 111v151q-137 -2 -235.5 -21.5t-145.5 -48t-67.5 -57t-20.5 -59.5z" />
<glyph unicode="&#xe1;" horiz-adv-x="1150" d="M352 1210q305 203 324 209q12 6 31 6q37 0 65.5 -30.5t28.5 -67.5q0 -8 -2 -16t-3 -15.5t-7.5 -14.5t-9.5 -11t-13 -11.5t-15 -10.5l-20 -11l-21 -12l-24.5 -13.5t-28.5 -13.5l-227 -121zM94 287q0 86 60.5 149.5t164 95t210 46t225.5 14.5v47q0 111 -82 156 q-59 35 -183 34q-41 0 -110 -4q-2 -61 -36 -87.5t-71 -26.5q-43 0 -73.5 29.5t-30.5 76.5q0 166 338 166q66 0 124 -9t117.5 -32.5t100.5 -60.5t67.5 -98.5t26.5 -141.5v-428q2 -37 28.5 -47t112.5 -12q31 0 45.5 -10.5t14.5 -47.5v-35q0 -37 -13.5 -49t-46.5 -12h-57 q-141 0 -191.5 29.5t-64.5 91.5q-152 -133 -399 -133q-135 0 -206 95t-71 204zM285 291q0 -53 53 -100.5t156 -47.5q59 0 113.5 14.5t100.5 57.5t46 111v151q-137 -2 -235.5 -21.5t-145.5 -48t-67.5 -57t-20.5 -59.5z" />
<glyph unicode="&#xe2;" horiz-adv-x="1150" d="M180 1339l340 254h2l340 -254l-92 -122l-248 198h-2l-246 -198zM94 287q0 86 60.5 149.5t164 95t210 46t225.5 14.5v47q0 111 -82 156q-59 35 -183 34q-41 0 -110 -4q-2 -61 -36 -87.5t-71 -26.5q-43 0 -73.5 29.5t-30.5 76.5q0 166 338 166q66 0 124 -9t117.5 -32.5 t100.5 -60.5t67.5 -98.5t26.5 -141.5v-428q2 -37 28.5 -47t112.5 -12q31 0 45.5 -10.5t14.5 -47.5v-35q0 -37 -13.5 -49t-46.5 -12h-57q-141 0 -191.5 29.5t-64.5 91.5q-152 -133 -399 -133q-135 0 -206 95t-71 204zM285 291q0 -53 53 -100.5t156 -47.5q59 0 113.5 14.5 t100.5 57.5t46 111v151q-137 -2 -235.5 -21.5t-145.5 -48t-67.5 -57t-20.5 -59.5z" />
<glyph unicode="&#xe3;" horiz-adv-x="1150" d="M166 1274q176 190 223 227q51 39 88 39q27 0 47.5 -21.5t32.5 -47t32.5 -48t47.5 -24.5q16 0 36.5 8t37 18.5t38 30t32.5 30.5l32 32l25 24l112 -106q-4 -4 -44 -49.5t-67 -72.5l-68 -66q-40 -38 -73.5 -57.5t-58.5 -19.5q-41 0 -81 69t-79 71q-20 0 -42.5 -10.5t-47 -29 t-41.5 -33.5l-40 -39l-29 -30zM94 287q0 86 60.5 149.5t164 95t210 46t225.5 14.5v47q0 111 -82 156q-59 35 -183 34q-41 0 -110 -4q-2 -61 -36 -87.5t-71 -26.5q-43 0 -73.5 29.5t-30.5 76.5q0 166 338 166q66 0 124 -9t117.5 -32.5t100.5 -60.5t67.5 -98.5t26.5 -141.5 v-428q2 -37 28.5 -47t112.5 -12q31 0 45.5 -10.5t14.5 -47.5v-35q0 -37 -13.5 -49t-46.5 -12h-57q-141 0 -191.5 29.5t-64.5 91.5q-152 -133 -399 -133q-135 0 -206 95t-71 204zM285 291q0 -53 53 -100.5t156 -47.5q59 0 113.5 14.5t100.5 57.5t46 111v151 q-137 -2 -235.5 -21.5t-145.5 -48t-67.5 -57t-20.5 -59.5z" />
<glyph unicode="&#xe4;" horiz-adv-x="1150" d="M221 1286q0 53 40 94t97.5 41t96.5 -40t39 -95q0 -57 -40 -97t-96 -40q-59 0 -98 41t-39 96zM680 1286q0 57 40 96t95 39t96 -39t41 -96q0 -55 -40 -96t-97 -41q-53 0 -94 40t-41 97zM94 287q0 86 60.5 149.5t164 95t210 46t225.5 14.5v47q0 111 -82 156q-59 35 -183 34 q-41 0 -110 -4q-2 -61 -36 -87.5t-71 -26.5q-43 0 -73.5 29.5t-30.5 76.5q0 166 338 166q66 0 124 -9t117.5 -32.5t100.5 -60.5t67.5 -98.5t26.5 -141.5v-428q2 -37 28.5 -47t112.5 -12q31 0 45.5 -10.5t14.5 -47.5v-35q0 -37 -13.5 -49t-46.5 -12h-57q-141 0 -191.5 29.5 t-64.5 91.5q-152 -133 -399 -133q-135 0 -206 95t-71 204zM285 291q0 -53 53 -100.5t156 -47.5q59 0 113.5 14.5t100.5 57.5t46 111v151q-137 -2 -235.5 -21.5t-145.5 -48t-67.5 -57t-20.5 -59.5z" />
<glyph unicode="&#xe5;" horiz-adv-x="1150" d="M260 1325q0 115 71.5 185.5t190.5 70.5q117 0 188.5 -70.5t71.5 -185.5q0 -117 -71.5 -186.5t-190.5 -69.5q-117 0 -188.5 70.5t-71.5 185.5zM391 1329q0 -45 6 -74.5t37 -56.5t86 -27q131 0 131 150q0 45 -6 74.5t-36.5 56.5t-86.5 27q-78 0 -104.5 -40t-26.5 -110z M94 287q0 86 60.5 149.5t164 95t210 46t225.5 14.5v47q0 111 -82 156q-59 35 -183 34q-41 0 -110 -4q-2 -61 -36 -87.5t-71 -26.5q-43 0 -73.5 29.5t-30.5 76.5q0 166 338 166q66 0 124 -9t117.5 -32.5t100.5 -60.5t67.5 -98.5t26.5 -141.5v-428q2 -37 28.5 -47t112.5 -12 q31 0 45.5 -10.5t14.5 -47.5v-35q0 -37 -13.5 -49t-46.5 -12h-57q-141 0 -191.5 29.5t-64.5 91.5q-152 -133 -399 -133q-135 0 -206 95t-71 204zM285 291q0 -53 53 -100.5t156 -47.5q59 0 113.5 14.5t100.5 57.5t46 111v151q-137 -2 -235.5 -21.5t-145.5 -48t-67.5 -57 t-20.5 -59.5z" />
<glyph unicode="&#xe6;" horiz-adv-x="1701" d="M100 276q0 82 56.5 139.5t159 87t205 43t235.5 17.5v72q0 111 -82 160q-59 35 -182 34q-43 0 -113 -4q-2 -66 -35 -90t-70 -24q-45 0 -75.5 29.5t-30.5 76.5q0 166 342 166q256 0 371 -139q147 139 354 139q115 0 196.5 -41t123.5 -110.5t60.5 -142.5t18.5 -152 q0 -29 -9 -43.5t-20.5 -16.5t-33.5 -2h-627q10 -156 106.5 -237.5t270.5 -81.5q59 0 95 30.5t54.5 69.5t26.5 45q12 8 57 8h9q68 0 67 -41q0 -18 -18 -63q-45 -94 -136.5 -154.5t-213.5 -60.5q-229 0 -377 147q-131 -150 -510 -149q-139 0 -207 94t-68 194zM291 279 q0 -49 52 -92.5t157 -43.5q203 0 254 90q12 23 12 60q0 25 -10 137q-184 -2 -324.5 -35.5t-140.5 -115.5zM954 606h508q-33 223 -229 223q-29 0 -57.5 -5t-77.5 -23.5t-88.5 -68.5t-55.5 -126z" />
<glyph unicode="&#xe7;" horiz-adv-x="1046" d="M78 483q0 84 24.5 164t79 160t163 129t255.5 49q68 0 116 -4t109.5 -18.5t94 -51.5t32.5 -92q0 -49 -30.5 -78.5t-73.5 -29.5q-20 0 -40 6t-40 30.5t-25 67.5h-2q-82 4 -123 4q-340 0 -339 -330q0 -96 33.5 -164.5t91 -103.5t117 -50t124.5 -15q68 0 109 32.5t59 75.5 t23 47q10 8 36 8h58q47 0 47 -28q0 -23 -37 -96q-78 -143 -244 -193q182 -70 183 -213q0 -66 -35 -112t-85 -69.5t-135 -36.5t-154 -16.5t-173 -3.5v156h22q51 0 83 1t81 3t80 7.5t62.5 14.5t47 24.5t15.5 35.5q0 84 -194 84v119q-111 18 -193 67.5t-123 102.5t-65.5 121.5 t-29.5 110.5t-5 85z" />
<glyph unicode="&#xe8;" horiz-adv-x="1048" d="M375 1327q0 37 27.5 67.5t64.5 30.5q10 0 17.5 -1t20.5 -8l26 -14q13 -7 41 -26l57 -38l82 -55l110 -73l-78 -133q-10 6 -134 72l-156 84q-78 39 -78 94zM63 489q0 221 135.5 357.5t356.5 136.5q121 0 209 -41t133 -109.5t64.5 -142.5t19.5 -155q0 -37 -13.5 -48.5 t-43.5 -11.5h-660q10 -150 90 -227q100 -92 285 -92q70 0 113 28.5t64.5 70.5t25.5 44q12 10 43 10h18q74 0 74 -37q0 -29 -24.5 -73.5t-69.5 -93t-125 -82t-174 -33.5q-225 0 -373 134t-148 365zM274 606h535q-8 39 -18.5 69t-37 69.5t-76.5 62t-122 22.5q-234 0 -281 -223 z" />
<glyph unicode="&#xe9;" horiz-adv-x="1048" d="M289 1210q305 203 323 209q12 6 31 6q37 0 65.5 -30.5t28.5 -67.5q0 -8 -2 -16t-3 -15.5t-7 -14.5t-9 -11t-13.5 -11.5t-15.5 -10.5l-19 -11l-22 -12l-24.5 -13.5t-27.5 -13.5l-227 -121zM63 489q0 221 135.5 357.5t356.5 136.5q121 0 209 -41t133 -109.5t64.5 -142.5 t19.5 -155q0 -37 -13.5 -48.5t-43.5 -11.5h-660q10 -150 90 -227q100 -92 285 -92q70 0 113 28.5t64.5 70.5t25.5 44q12 10 43 10h18q74 0 74 -37q0 -29 -24.5 -73.5t-69.5 -93t-125 -82t-174 -33.5q-225 0 -373 134t-148 365zM274 606h535q-8 39 -18.5 69t-37 69.5 t-76.5 62t-122 22.5q-234 0 -281 -223z" />
<glyph unicode="&#xea;" horiz-adv-x="1048" d="M180 1339l340 254h2l340 -254l-92 -122l-248 198h-2l-246 -198zM63 489q0 221 135.5 357.5t356.5 136.5q121 0 209 -41t133 -109.5t64.5 -142.5t19.5 -155q0 -37 -13.5 -48.5t-43.5 -11.5h-660q10 -150 90 -227q100 -92 285 -92q70 0 113 28.5t64.5 70.5t25.5 44 q12 10 43 10h18q74 0 74 -37q0 -29 -24.5 -73.5t-69.5 -93t-125 -82t-174 -33.5q-225 0 -373 134t-148 365zM274 606h535q-8 39 -18.5 69t-37 69.5t-76.5 62t-122 22.5q-234 0 -281 -223z" />
<glyph unicode="&#xeb;" horiz-adv-x="1048" d="M158 1286q0 55 39 95t96 40q55 0 96 -39t41 -96q0 -55 -40 -96t-97 -41t-96 41t-39 96zM614 1286q0 53 39 94t97 41q55 0 96 -39t41 -96q0 -55 -40 -96t-95 -41q-57 0 -97.5 41t-40.5 96zM63 489q0 221 135.5 357.5t356.5 136.5q121 0 209 -41t133 -109.5t64.5 -142.5 t19.5 -155q0 -37 -13.5 -48.5t-43.5 -11.5h-660q10 -150 90 -227q100 -92 285 -92q70 0 113 28.5t64.5 70.5t25.5 44q12 10 43 10h18q74 0 74 -37q0 -29 -24.5 -73.5t-69.5 -93t-125 -82t-174 -33.5q-225 0 -373 134t-148 365zM274 606h535q-8 39 -18.5 69t-37 69.5 t-76.5 62t-122 22.5q-234 0 -281 -223z" />
<glyph unicode="&#xec;" horiz-adv-x="665" d="M2 1327q0 37 27.5 67.5t64.5 30.5q10 0 17.5 -1t20.5 -8l27 -14q13 -7 41 -26l56 -38l82 -55l111 -73l-78 -133q-10 6 -134 72l-157 84q-78 39 -78 94zM98 0v154h154v567q0 51 -20.5 65.5t-108.5 14.5h-17v155l330 23v-825h137v-154h-475z" />
<glyph unicode="&#xed;" horiz-adv-x="665" d="M172 1210q305 203 324 209q12 6 30 6q37 0 66 -30.5t29 -67.5q0 -8 -2.5 -16t-3.5 -15.5t-7 -14.5t-9 -11t-13.5 -11.5t-15.5 -10.5l-19 -11l-22 -12l-24.5 -13.5t-27.5 -13.5l-227 -121zM96 0v154h154v567q0 51 -20.5 65.5t-108.5 14.5h-17v155l330 23v-825h137v-154 h-475z" />
<glyph unicode="&#xee;" horiz-adv-x="665" d="M0 1339l340 254h2l340 -254l-92 -122l-248 198h-2l-246 -198zM96 0v154h154v567q0 51 -20.5 65.5t-108.5 14.5h-17v155l330 23v-825h137v-154h-475z" />
<glyph unicode="&#xef;" horiz-adv-x="796" d="M43 1284q0 57 40 97t97 40q53 0 94 -39t41 -96t-41 -97t-94 -40q-59 0 -98 41t-39 94zM502 1286q0 53 39 94t96 41q55 0 95 -37.5t40 -97.5q0 -57 -40 -97t-95 -40q-59 0 -97 41t-38 96zM164 0v154h153v567q0 51 -20.5 65.5t-108.5 14.5h-16v155l330 23v-825h137v-154 h-475z" />
<glyph unicode="&#xf0;" d="M63 475q0 225 143.5 366.5t379.5 141.5q119 0 239 -55q-47 82 -118.5 157.5t-100.5 75.5q-12 0 -58 -27.5t-62.5 -27.5t-45 47t-28.5 64q0 14 39 40q-131 51 -252 52l-4 -2h-9q-41 0 -41 22q0 16 56 62q39 33 78 32q156 0 333 -73q106 68 129 67q20 0 48 -48t28 -62 q0 -16 -51 -47q98 -82 137 -123q207 -231 207 -531v-98q0 -119 -33 -213t-85 -149.5t-123.5 -92.5t-140.5 -50t-142 -13q-236 0 -379.5 133t-143.5 352zM264 500q0 -344 322 -344q176 0 249.5 95t73.5 234q0 63 -15 120t-49 110t-100.5 83.5t-158.5 30.5q-322 1 -322 -329z " />
<glyph unicode="&#xf1;" horiz-adv-x="1318" d="M276 1272q176 190 224 227q51 39 88 39q27 0 47 -21.5t32.5 -47t33 -48t47.5 -24.5q16 0 36.5 8t37 18.5t38 30t32.5 30.5l32 32l24 24l113 -106q-4 -4 -44 -49.5t-68 -72.5l-67 -66q-40 -38 -74 -57.5t-58 -19.5q-41 0 -81 69t-79 71q-20 0 -43 -10.5t-47.5 -29 t-40.5 -33.5l-40 -39l-30 -30zM94 0v154h154v567q0 53 -25.5 66.5t-109.5 13.5h-19v155l332 23v-162q129 162 346 162q88 0 150.5 -22.5t94.5 -53.5t49 -82t20.5 -87t3.5 -89v-491h153v-154h-495v154h153v487q0 90 -43 136t-178 46q-94 0 -169 -63.5t-75 -216.5v-389h154 v-154h-496z" />
<glyph unicode="&#xf2;" d="M375 1327q0 37 27.5 67.5t64.5 30.5q10 0 17.5 -1t20.5 -8l26 -14q13 -7 41 -26l57 -38l82 -55l110 -73l-78 -133q-10 6 -134 72l-156 84q-78 39 -78 94zM63 475q0 229 143.5 368.5t381.5 139.5q236 0 379 -140.5t143 -367.5q0 -221 -142.5 -353t-382 -132t-381 132 t-141.5 353zM264 502q0 -348 322 -348q324 0 323 348q0 328 -319 327q-326 1 -326 -327z" />
<glyph unicode="&#xf3;" d="M352 1210q305 203 324 209q12 6 31 6q37 0 65.5 -30.5t28.5 -67.5q0 -8 -2 -16t-3 -15.5t-7.5 -14.5t-9.5 -11t-13 -11.5t-15 -10.5l-20 -11l-21 -12l-24.5 -13.5t-28.5 -13.5l-227 -121zM63 475q0 229 143.5 368.5t381.5 139.5q236 0 379 -140.5t143 -367.5 q0 -221 -142.5 -353t-382 -132t-381 132t-141.5 353zM264 502q0 -348 322 -348q324 0 323 348q0 328 -319 327q-326 1 -326 -327z" />
<glyph unicode="&#xf4;" d="M246 1339l340 254h2l340 -254l-92 -122l-248 198h-2l-246 -198zM63 475q0 229 143.5 368.5t381.5 139.5q236 0 379 -140.5t143 -367.5q0 -221 -142.5 -353t-382 -132t-381 132t-141.5 353zM264 502q0 -348 322 -348q324 0 323 348q0 328 -319 327q-326 1 -326 -327z" />
<glyph unicode="&#xf5;" d="M195 1274q176 190 223 227q51 39 88 39q27 0 47 -21.5t32.5 -47t33 -48t47.5 -24.5q16 0 36.5 8t37 18.5t38 30t32.5 30.5l32 32l24 24l113 -106q-4 -4 -44 -49.5t-68 -72.5l-67 -66q-40 -38 -74 -57.5t-58 -19.5q-41 0 -81 69t-79 71q-20 0 -43 -10.5t-47.5 -29 t-40.5 -33.5l-40 -39l-30 -30zM63 475q0 229 143.5 368.5t381.5 139.5q236 0 379 -140.5t143 -367.5q0 -221 -142.5 -353t-382 -132t-381 132t-141.5 353zM264 502q0 -348 322 -348q324 0 323 348q0 328 -319 327q-326 1 -326 -327z" />
<glyph unicode="&#xf6;" d="M221 1286q0 53 40 94t97.5 41t96.5 -40t39 -95q0 -57 -40 -97t-96 -40q-59 0 -98 41t-39 96zM680 1286q0 57 40 96t95 39t96 -39t41 -96t-40 -97t-95 -40q-59 0 -98 40t-39 97zM63 475q0 229 143.5 368.5t381.5 139.5q236 0 379 -140.5t143 -367.5q0 -221 -142.5 -353 t-382 -132t-381 132t-141.5 353zM264 502q0 -348 322 -348q324 0 323 348q0 328 -319 327q-326 1 -326 -327z" />
<glyph unicode="&#xf7;" horiz-adv-x="1830" d="M131 512q0 25 16.5 40t34.5 19q8 2 51 2h1375q27 0 41 -2q47 -10 47 -59q0 -61 -82 -61h-1405q-78 0 -78 61zM739 -20q0 74 51.5 125t122.5 51q74 0 125.5 -51.5t51.5 -124.5q0 -72 -51.5 -124.5t-123.5 -52.5q-78 0 -127 52.5t-49 124.5zM739 1042q0 76 51.5 126.5 t122.5 50.5q74 0 125.5 -52.5t51.5 -122.5q0 -72 -51.5 -124t-123.5 -52q-78 0 -127 52t-49 122z" />
<glyph unicode="&#xf8;" d="M72 475q0 217 136 362.5t378 145.5q111 0 200 -31l160 256l131 -84l-153 -247q178 -137 178 -402q0 -221 -140.5 -353t-375.5 -132q-106 0 -197 28l-162 -258l-131 82l154 246v2q-178 139 -178 385zM252 477q0 -168 84 -252l366 592q-59 12 -118 12q-145 0 -238.5 -79.5 t-93.5 -272.5zM473 154q66 -10 117 -11q332 0 332 330q-2 168 -82 266h-2z" />
<glyph unicode="&#xf9;" horiz-adv-x="1318" d="M424 1327q0 37 27.5 67.5t64.5 30.5q10 0 17.5 -1t20.5 -8l27 -14q13 -7 41 -26l56 -38l82 -55l110 -73l-77 -133q-10 6 -135 72l-156 84q-78 39 -78 94zM94 801v155l342 23v-709q0 -78 33 -102.5t151.5 -24.5t200.5 53.5t80 163.5v367q0 47 -23.5 60.5t-111.5 13.5h-18 v155l342 23v-750q0 -47 24.5 -61t110.5 -14h18v-154l-336 -10v139q-154 -139 -411 -139q-72 0 -121 20.5t-74 46t-37 72.5t-14 74.5t-2 77.5v444q0 53 -29 64.5t-119 11.5h-6z" />
<glyph unicode="&#xfa;" horiz-adv-x="1318" d="M434 1210q305 203 324 209q12 6 30 6q37 0 66 -30.5t29 -67.5q0 -8 -2 -16t-3 -15.5t-7.5 -14.5t-9.5 -11t-13 -11.5t-15 -10.5l-20 -11l-21 -12l-24.5 -13.5t-28.5 -13.5l-227 -121zM94 801v155l342 23v-709q0 -78 33 -102.5t151.5 -24.5t200.5 53.5t80 163.5v367 q0 47 -23.5 60.5t-111.5 13.5h-18v155l342 23v-750q0 -47 24.5 -61t110.5 -14h18v-154l-336 -10v139q-154 -139 -411 -139q-72 0 -121 20.5t-74 46t-37 72.5t-14 74.5t-2 77.5v444q0 53 -29 64.5t-119 11.5h-6z" />
<glyph unicode="&#xfb;" horiz-adv-x="1318" d="M328 1337l340 256h2l342 -256l-94 -120h-3l-245 198h-2l-244 -198h-2zM94 801v155l342 23v-709q0 -78 33 -102.5t151.5 -24.5t200.5 53.5t80 163.5v367q0 47 -23.5 60.5t-111.5 13.5h-18v155l342 23v-750q0 -47 24.5 -61t110.5 -14h18v-154l-336 -10v139 q-154 -139 -411 -139q-72 0 -121 20.5t-74 46t-37 72.5t-14 74.5t-2 77.5v444q0 53 -29 64.5t-119 11.5h-6z" />
<glyph unicode="&#xfc;" horiz-adv-x="1318" d="M303 1286q0 55 41 95t96 40q53 0 94 -39t41 -96t-40.5 -97t-94.5 -40q-59 0 -98 41t-39 96zM762 1286q0 57 40 96t95 39t96 -39t41 -96t-41 -97t-94 -40q-57 0 -97 41t-40 96zM94 801v155l342 23v-709q0 -78 33 -102.5t151.5 -24.5t200.5 53.5t80 163.5v367 q0 47 -23.5 60.5t-111.5 13.5h-18v155l342 23v-750q0 -47 24.5 -61t110.5 -14h18v-154l-336 -10v139q-154 -139 -411 -139q-72 0 -121 20.5t-74 46t-37 72.5t-14 74.5t-2 77.5v444q0 53 -29 64.5t-119 11.5h-6z" />
<glyph unicode="&#xfd;" horiz-adv-x="1253" d="M522 1210q305 203 324 209q12 6 31 6q37 0 65.5 -30.5t28.5 -67.5q0 -8 -2 -16t-3 -15.5t-7.5 -14.5t-9.5 -11t-13 -11.5t-15 -10.5l-20 -11l-21 -12l-24.5 -13.5t-28.5 -13.5l-227 -121zM51 -238q0 47 30 75t73 28q35 0 67.5 -25.5t32.5 -83.5v-12q31 0 58 5l48 9 q20 4 40 17.5t32 19.5t26.5 25.5t20.5 27t17.5 31t13.5 28.5l12 32q10 27 10 28q10 25 10.5 33t-12.5 39l-319 774h-160v154h451v-154h-103l205 -506l37 -112q14 57 127 333.5t115 284.5h-103v154h422v-154h-160l-360 -872q0 -2 -12.5 -32t-17.5 -39t-18 -37t-23.5 -43 t-28 -37.5t-37.5 -43.5q-121 -119 -275 -119q-90 0 -154.5 48t-64.5 124zM242 -256l8 2h-6z" />
<glyph unicode="&#xfe;" horiz-adv-x="1318" d="M86 -244h154v1426q0 49 -25 62t-117 13h-12v154l338 23v-564q188 109 457 109q162 0 260 -132t98 -358q0 -223 -116.5 -361t-325.5 -138q-197 0 -369 123v-357h154v-155h-496v155zM428 360q0 -72 83 -144.5t196 -72.5q141 0 236 89.5t95 250.5q0 152 -85 241t-226 89 q-109 0 -204 -48t-95 -118v-287z" />
<glyph unicode="&#xff;" horiz-adv-x="1253" d="M262 1286q0 53 39 94t96 41q55 0 96.5 -39t41.5 -96t-40 -97t-98 -40q-53 0 -94 40t-41 97zM719 1286q0 53 39 94t96 41q55 0 96 -39t41 -96q0 -55 -40 -96t-95 -41q-57 0 -97 41t-40 96zM51 -238q0 47 30 75t73 28q35 0 67.5 -25.5t32.5 -83.5v-12q31 0 58 5l48 9 q20 4 40 17.5t32 19.5t26.5 25.5t20.5 27t17.5 31t13.5 28.5l12 32q10 27 10 28q10 25 10.5 33t-12.5 39l-319 774h-160v154h451v-154h-103l205 -506l37 -112q14 57 127 333.5t115 284.5h-103v154h422v-154h-160l-360 -872q0 -2 -12.5 -32t-17.5 -39t-18 -37t-23.5 -43 t-28 -37.5t-37.5 -43.5q-121 -119 -275 -119q-90 0 -154.5 48t-64.5 124zM242 -256l8 2h-6z" />
<glyph unicode="&#x152;" horiz-adv-x="2371" d="M145 700q0 334 214 539t571 205q61 0 181 -11.5t200 -11.5q10 0 31.5 1t31.5 1h813l51 -473h-153q-16 154 -28.5 212.5t-28 75.5t-54.5 22q-72 8 -325 8h-265v-453h226q168 0 197.5 9.5t35.5 58.5v2q4 35 4 104v17h154v-535h-154v16q0 109 -10 136.5t-47 31.5 q-49 6 -246 7h-160v-508h316q287 0 337 14t68 102q2 8 4 15q18 86 41 241h154l-76 -526h-915q-80 0 -201 -11.5t-184 -11.5q-356 0 -569.5 198.5t-213.5 524.5zM346 735q0 -270 159 -437t435 -167q39 0 68.5 2t54.5 10l42 15q17 6 32 26l23 33q9 12 15.5 46t9.5 54.5t5 71.5 t2 83v99v265q0 258 -14 319q-20 82 -73.5 108.5t-148.5 26.5q-174 0 -300 -52t-190.5 -139t-92 -176.5t-27.5 -187.5z" />
<glyph unicode="&#x153;" horiz-adv-x="1830" d="M63 489q0 227 140.5 360.5t363.5 133.5q258 0 410 -182q135 182 385 182q115 0 197.5 -41t124.5 -109.5t60.5 -141.5t18.5 -154q0 -41 -14 -51.5t-47 -10.5h-629q6 -98 45 -165.5t99.5 -98.5t116 -43t118.5 -12q106 0 154 110q12 29 24 36t39 7h27q66 0 65 -39 q0 -78 -105.5 -179t-260.5 -101q-262 0 -416 188q-139 -188 -412 -188q-227 0 -365.5 137t-138.5 362zM252 500q0 -193 88 -275t227.5 -82t228.5 82t89 277q0 180 -89 253.5t-227 73.5q-317 1 -317 -329zM1085 606h508q-35 223 -231 223q-29 0 -57.5 -5t-76.5 -23.5 t-87.5 -68.5t-55.5 -126z" />
<glyph unicode="&#x178;" horiz-adv-x="1734" d="M502 1661q0 57 41 96t94 39q55 0 96 -39t41 -96q0 -55 -40 -96t-97 -41q-53 0 -94 40t-41 97zM958 1661q0 55 40 95t98 40q53 0 94 -39t41 -96q0 -59 -40 -98t-95 -39q-57 0 -97.5 41t-40.5 96zM43 1268v155h504v-155h-62l408 -539l403 539h-59v155h453v-155h-199 l-502 -666q-18 -25 -21 -36t-3 -48v-364h157v-154h-512v154h160v378q0 33 -25 68l-503 668h-199z" />
<glyph unicode="&#x2c6;" d="M246 1339l340 254h2l340 -254l-92 -122l-248 198h-2l-246 -198z" />
<glyph unicode="&#x2dc;" d="M195 1155q176 190 223 227q51 39 88 39q27 0 47 -21.5t32.5 -47t33 -48t47.5 -24.5q16 0 36.5 8t37 18.5t38 30t32.5 30.5l32 32l24 24l113 -106q-4 -4 -44 -49t-68 -73l-67 -66q-40 -38 -74 -57t-58 -19q-41 0 -81 68.5t-79 70.5q-20 0 -43 -10.5t-47.5 -28.5t-40.5 -34 l-40 -39l-30 -29z" />
<glyph unicode="&#x2000;" horiz-adv-x="1024" />
<glyph unicode="&#x2001;" horiz-adv-x="2048" />
<glyph unicode="&#x2002;" horiz-adv-x="1024" />
<glyph unicode="&#x2003;" horiz-adv-x="2048" />
<glyph unicode="&#x2004;" horiz-adv-x="681" />
<glyph unicode="&#x2005;" horiz-adv-x="512" />
<glyph unicode="&#x2006;" horiz-adv-x="339" />
<glyph unicode="&#x2007;" horiz-adv-x="339" />
<glyph unicode="&#x2008;" horiz-adv-x="256" />
<glyph unicode="&#x2009;" horiz-adv-x="409" />
<glyph unicode="&#x200a;" horiz-adv-x="112" />
<glyph unicode="&#x2010;" horiz-adv-x="784" d="M25 393v180h626v-180h-626z" />
<glyph unicode="&#x2011;" horiz-adv-x="784" d="M25 393v180h626v-180h-626z" />
<glyph unicode="&#x2012;" horiz-adv-x="784" d="M25 393v180h626v-180h-626z" />
<glyph unicode="&#x2013;" d="M0 520v156h1178v-156h-1178z" />
<glyph unicode="&#x2014;" horiz-adv-x="2355" d="M0 520v156h2355v-156h-2355z" />
<glyph unicode="&#x2018;" horiz-adv-x="653" d="M156 1008q0 106 42 206.5t87 151.5t67 51q16 0 55 -39t39 -55q0 -10 -18 -32l-42 -50q-24 -29 -46.5 -86t-30.5 -131h8q76 0 110 -43t34 -94q0 -55 -38 -95t-95 -40q-78 0 -125 70.5t-47 185.5z" />
<glyph unicode="&#x2019;" horiz-adv-x="653" d="M188 1286q0 57 38 96t98 39q76 0 123 -70.5t47 -185.5q0 -68 -16.5 -133t-42 -113.5t-53.5 -86t-50.5 -57t-32.5 -19.5q-16 0 -56 39t-40 55q0 10 30.5 43t64.5 98.5t42 157.5h-8q-74 0 -109 43t-35 94z" />
<glyph unicode="&#x201a;" horiz-adv-x="653" d="M188 137q0 57 38 96t98 39q74 0 118.5 -68.5t44.5 -185.5q0 -104 -39.5 -205.5t-82.5 -153.5t-66 -52q-18 0 -57 40t-39 56q0 8 29.5 43t62.5 102.5t37 151.5q-76 2 -110 46t-34 91z" />
<glyph unicode="&#x201c;" horiz-adv-x="796" d="M-25 1008q0 82 26 161.5t59.5 132t65.5 84t46 31.5q16 0 55 -39t39 -55q0 -10 -18 -32l-42 -49q-24 -28 -46.5 -86t-30.5 -132h8q76 0 110 -43t34 -94q0 -55 -38 -95t-96 -40q-78 0 -125 70.5t-47 185.5zM485 1008q0 106 42 206.5t87 151.5t68 51q16 0 55 -39t39 -55 q0 -10 -18 -32l-42 -50q-24 -29 -46.5 -86t-30.5 -131h8q76 0 110 -43t34 -94q0 -55 -38 -95t-96 -40q-78 0 -125 70.5t-47 185.5z" />
<glyph unicode="&#x201d;" horiz-adv-x="796" d="M6 1286q0 57 38 96t97 39q76 0 123 -70.5t47 -185.5q0 -68 -16 -133t-42 -113.5t-53.5 -86t-50 -57t-32.5 -19.5q-16 0 -56.5 39t-40.5 55q0 12 19 34l42 48q24 27 46.5 84t30.5 133h-8q-74 0 -109 43t-35 94zM516 1286q0 55 38 95t95 40q78 0 125 -70.5t47 -185.5 q0 -82 -25.5 -161.5t-59.5 -132t-65.5 -84t-45.5 -31.5q-16 0 -55.5 40t-39.5 56q0 10 30 40t63.5 95.5t44.5 161.5h-9q-76 0 -109.5 43t-33.5 94z" />
<glyph unicode="&#x201e;" horiz-adv-x="796" d="M6 137q0 57 38 96t97 39q76 0 123 -70.5t47 -185.5q0 -68 -16 -133t-42 -113.5t-53.5 -86t-50 -57t-32.5 -19.5q-16 0 -56.5 39t-40.5 55q0 12 19 34l42 48q24 27 46.5 84t30.5 133h-8q-74 0 -109 43t-35 94zM516 137q0 55 38 95t95 40q78 0 125 -70.5t47 -185.5 q0 -82 -25.5 -161.5t-59.5 -132t-65.5 -84t-45.5 -31.5q-16 0 -55.5 40t-39.5 56q0 10 30 40t63.5 95.5t44.5 161.5h-9q-76 0 -109.5 43t-33.5 94z" />
<glyph unicode="&#x2022;" d="M129 512q0 205 126 332t333 127q203 0 329.5 -127t126.5 -334q0 -203 -125.5 -330t-332.5 -127q-205 0 -331 128t-126 331z" />
<glyph unicode="&#x2026;" horiz-adv-x="1959" d="M188 137q0 57 42 96t95.5 39t94.5 -38.5t41 -96t-41 -97.5t-94 -40q-59 0 -98.5 41t-39.5 96zM842 137q0 57 42 96t95 39t94 -38.5t41 -96t-41 -97.5t-94 -40q-59 0 -98 41t-39 96zM1495 137q0 57 42 96t95.5 39t94 -38.5t40.5 -96t-40.5 -97.5t-94.5 -40q-59 0 -98 41 t-39 96z" />
<glyph unicode="&#x202f;" horiz-adv-x="409" />
<glyph unicode="&#x2039;" horiz-adv-x="1046" d="M264 512q0 12 11.5 23.5t49 44t78.5 77.5q80 86 130.5 166t63.5 119t30.5 61.5t50.5 22.5q2 0 6 -1t6 -1h45q43 0 43 -27q0 -25 -50 -124t-112 -183q-66 -88 -155 -178q104 -98 183 -217t106.5 -184.5t27.5 -81.5q0 -29 -43 -29h-59q-23 0 -34 7t-17.5 18.5t-23.5 49.5 t-40 77q-51 88 -108.5 159.5t-96.5 104.5t-65.5 58.5t-26.5 37.5z" />
<glyph unicode="&#x203a;" horiz-adv-x="1046" d="M264 29q0 23 50.5 122t111.5 183q57 80 156 178q-104 98 -183.5 218t-107 185.5t-27.5 81.5q0 27 43 27h60q18 0 26 -2t17.5 -12.5t14.5 -23.5t20.5 -45t35.5 -67q66 -113 140.5 -195.5t115.5 -117.5t41 -49q0 -12 -11 -23.5t-49 -43t-79 -76.5q-78 -86 -129 -169 t-72.5 -132.5t-31.5 -57.5q-10 -10 -41 -10h-58q-43 0 -43 29z" />
<glyph unicode="&#x205f;" horiz-adv-x="512" />
<glyph unicode="&#x20ac;" horiz-adv-x="1701" d="M4 514q0 20 35 90q12 27 23.5 35t35.5 8h260l-2 64l2 63h-295q-59 0 -59 27q0 14 37 94q12 29 23.5 35t37.5 6h291q76 219 260.5 353t413.5 134q125 0 244 -46t179 -94t60 -73q0 -14 -22 -65q-31 -74 -43 -80q-4 -2 -8 -2q-10 0 -43 27l-75 58q-42 32 -121 58.5 t-169 26.5q-145 0 -272 -76t-201 -221h778q47 0 47 -26.5t-39 -98.5q-10 -23 -19 -29t-36 -8h-778l-2 -63l2 -64h696q51 0 51 -24q0 -14 -32 -88q-14 -33 -26.5 -40.5t-47.5 -7.5h-594q82 -160 212 -229.5t263 -69.5q74 0 143.5 16.5t120.5 41t88 48t66 45t31 23.5q6 2 16 3 q20 0 20 -43v-93q0 -29 -16 -49t-82 -63q-176 -117 -389 -117q-238 0 -420 136t-256 351h-350q-39 0 -39 27z" />
<glyph unicode="&#x2122;" horiz-adv-x="1570" d="M2 1460q0 25 18.5 49.5t61.5 26.5h596q104 0 104 -76q0 -78 -92 -78h-219v-538q-2 -96 -80 -96q-29 0 -52.5 21.5t-23.5 72.5v540h-221q-92 0 -92 78zM838 840v620q0 96 77 96q14 0 24.5 -3t23 -14t22.5 -24.5t29.5 -42t38.5 -59.5l53 -85l72 -107l180 278q41 57 82 57 q76 0 76 -98v-618q2 -49 -23 -70.5t-53.5 -21.5t-53 21.5t-24.5 72.5v377q-117 -176 -131 -193q-23 -23 -53 -22q-12 0 -22.5 3t-22 13t-20.5 19.5t-23 30.5l-26 38q-11 16 -32.5 52t-38.5 61v-381q0 -37 -16 -59.5t-31.5 -27.5t-32.5 -5q-73 0 -75 92z" />
<glyph unicode="&#xe000;" horiz-adv-x="965" d="M0 965h965v-965h-965v965z" />
<glyph unicode="&#xfb01;" horiz-adv-x="1314" d="M63 813v154h173v112q0 49 3 76t30.5 73t82.5 85q172 121 522 121q98 0 140.5 -64.5t42.5 -134.5q0 -63 -36 -90t-75 -27q-47 0 -78.5 31t-31.5 80q0 25 6 45q-43 6 -90 6q-268 0 -328 -121q-12 -25 -12 -67v-125h323v14l336 12v-839h154v-154h-490v154h154v600 q-2 39 -14.5 49t-38.5 10h-418v-659h153v-154h-489v154h154v659h-173z" />
<glyph unicode="&#xfb02;" horiz-adv-x="1314" d="M63 813v154h173v131q0 98 61 167.5t162.5 104.5t202 49.5t208.5 14.5q49 0 76 -10.5t43 -10.5l82 10v-1269h154v-154h-490v154h154v659h-471v-659h153v-154h-489v154h154v659h-173zM412 967h477v231q-37 37 -43 80q-14 0 -46 1t-48 1h-2q-272 -2 -326 -121 q-12 -25 -12 -65v-127z" />
<glyph unicode="&#xfb03;" horiz-adv-x="1968" d="M63 813v154h173v127q0 98 51 157q147 182 575 183h4q55 0 94 -19.5t72 -85.5q186 104 494 105q57 0 97 -24t57.5 -60.5t23.5 -64.5t6 -52q0 -51 -31.5 -83t-79 -32t-79 31t-31.5 80q0 18 8 45q-47 6 -92 6q-266 0 -328 -121q-10 -20 -10 -67v-125h322v14l335 12v-839h154 v-154h-489v154h153v600q-2 39 -14 49t-39 10h-418v-659h154v-154h-490v154h154v659h-471v-659h153v-154h-489v154h154v659h-173zM412 967h477v161q-59 39 -60 101q0 16 9 45q-47 6 -90 6q-264 0 -324 -119q-12 -27 -12 -69v-125z" />
<glyph unicode="&#xfb04;" horiz-adv-x="1968" d="M63 813v154h173v127q0 96 47 155q59 74 200.5 129.5t380.5 55.5q57 0 98.5 -18.5t73.5 -82.5q195 100 494 101q37 0 65.5 -9.5t49.5 -9.5q18 0 79 8v-1269h154v-154h-489v154h153v659h-471v-659h154v-154h-490v154h154v659h-471v-659h153v-154h-489v154h154v659h-173z M412 967h477v94q0 78 6 110q-49 41 -49 95v10q-70 4 -105 4q-256 -2 -317 -119q-12 -27 -12 -69v-125zM1067 967h475v231q-37 37 -43 80q-16 0 -48 1t-46 1q-272 0 -328 -121q-10 -20 -10 -65v-127z" />
</font>
</defs>
</svg>
