<?xml version="1.0" standalone="no"?>
<!DOCTYPE svg PUBLIC "-//W3C//DTD SVG 1.1//EN" "http://www.w3.org/Graphics/SVG/1.1/DTD/svg11.dtd" >
<svg xmlns="http://www.w3.org/2000/svg">
<metadata>
This is a custom SVG webfont generated by Font Squirrel.
Copyright   : Converted by Andrey V Panov from TeX fonts
</metadata>
<defs>
<font id="webfontkgO2TJfz" horiz-adv-x="1302" >
<font-face units-per-em="2048" ascent="1638" descent="-410" />
<missing-glyph horiz-adv-x="847" />
<glyph unicode=" "  horiz-adv-x="847" />
<glyph unicode="&#x09;" horiz-adv-x="847" />
<glyph unicode="&#xa0;" horiz-adv-x="847" />
<glyph unicode="!" horiz-adv-x="864" d="M332 106q0 55 46 102.5t107 47.5q45 0 76 -29.5t31 -76.5q0 -57 -46 -103.5t-106 -46.5q-45 0 -76.5 29.5t-31.5 76.5zM463 454.5q0 20.5 10 57.5l156 791q16 78 64 109.5t91 31.5q45 0 76 -27.5t31 -73.5q0 -23 -29 -112l-225 -750q-2 -6 -5 -16t-4 -13t-4 -10.5 t-6.5 -8.5t-6.5 -4t-9 -3t-13 -1t-18 -1h-53q-31 0 -43 5t-12 25.5z" />
<glyph unicode="&#x22;" d="M582 821q0 4 94 473q0 2 3 16.5t5 21.5t7 22.5t11 23.5l16 21q9 12 20.5 19t27.5 12.5t35 5.5q31 0 59.5 -20.5t28.5 -65.5q0 -14 -146 -508q-10 -33 -22 -47.5t-22.5 -16.5t-41.5 -2h-14q-61 0 -61 45zM977 821q0 10 94 475q25 139 123 140q31 0 59.5 -20.5t28.5 -67.5 q0 -12 -145 -506q-10 -35 -22.5 -48.5t-23 -15.5t-40.5 -2h-15q-59 0 -59 45z" />
<glyph unicode="#" horiz-adv-x="2086" d="M262 268q0 78 96 78h340q25 0 34 5t24 32l162 293h-437q-98 0 -98 78q0 61 59 73q14 4 47 4h517q33 59 38 70l250 453q39 68 84 67q33 0 54.5 -23.5t21.5 -51.5q0 -25 -178 -347l-94 -168h334l292 527q33 61 80 63q33 -2 55.5 -23.5t22.5 -51.5q0 -23 -127 -248 l-147 -267h282q33 0 47 -4q25 -6 41.5 -26.5t16.5 -46.5q0 -29 -18.5 -49.5t-43.5 -24.5q-12 -4 -41 -4h-370l-185 -330h439q98 0 98 -78q0 -57 -60 -73q-16 -2 -47 -2h-516l-293 -527q-31 -63 -79 -63q-33 0 -54.5 22.5t-21.5 52.5q0 16 18.5 53.5t100.5 184.5l153 277 h-334l-293 -527q-37 -63 -79 -63q-35 0 -56.5 22.5t-21.5 52.5q0 16 18.5 53.5t102.5 186.5l153 275h-287q-100 -1 -100 75zM911 346h301q20 0 30.5 6t23.5 29l164 295h-336z" />
<glyph unicode="$" d="M279 293q0 86 30.5 147.5t102.5 61.5q35 0 59.5 -21.5t24.5 -58.5q0 -51 -47 -94q0 -150 159 -178l127 509q-94 18 -158.5 60.5t-90 93.5t-34 86t-8.5 68q0 51 21.5 115.5t71 139t150.5 133t241 75.5l2 2q14 68 25.5 85t48.5 19h36q57 0 58 -41q0 -8 -2 -19.5t-5 -24.5 l-6 -21q45 -6 85 -18.5t94.5 -42.5t86 -87t31.5 -137q0 -109 -39.5 -153t-93.5 -44q-35 0 -59.5 22.5t-24.5 57.5q0 49 47 92q-2 23 -7 40.5t-20.5 42t-50 43t-87.5 28.5l-113 -455q145 -29 215 -120t70 -201q0 -106 -54.5 -214t-170 -192t-269.5 -98q-14 -70 -26.5 -88.5 t-49.5 -20.5h-33q-59 0 -59 45q0 2 12 64q-133 18 -211.5 93t-78.5 206zM621 1018q0 -53 40.5 -99.5t122.5 -64.5l105 418q-125 -20 -196.5 -95t-71.5 -159zM766 150q139 31 207.5 120.5t68.5 173.5q0 135 -157 181z" />
<glyph unicode="%" horiz-adv-x="2086" d="M377 -51q0 29 45 69l1198 1170q-72 -10 -133 -10q-172 0 -340 71q-14 -223 -140 -380.5t-302 -157.5q-98 0 -174 63.5t-76 210.5q0 119 50 243t155.5 216t238.5 92q55 0 90 -13.5t84 -50t74 -51.5q166 -98 352 -98q117 0 230.5 43t185.5 109l18 18l17 16q4 4 12 10.5 t13 8.5t12.5 4t15.5 2q27 0 43 -17.5t16 -46.5q0 -14 -2 -20q6 -12 6 -18q0 -16 -31.5 -45t-77.5 -60t-54.5 -39l-77.5 -74l-1323 -1290q-37 -37 -66 -37q-25 0 -42 18.5t-17 43.5zM618 989q0 -68 34 -96.5t79 -28.5q106 0 180 123t74 252q0 63 -28.5 102t-88.5 39 q-70 0 -122 -49t-77.5 -119.5t-38 -128t-12.5 -94.5zM1294 158q0 121 50.5 244.5t156 216t238.5 92.5q59 0 110.5 -20.5t94.5 -84t43 -164.5q0 -123 -50.5 -248.5t-156 -217t-236.5 -91.5q-96 0 -173 64t-77 209zM1458 166q0 -125 113 -125q106 0 180 122t74 251 q0 143 -115 143q-72 0 -126 -52t-78.5 -126t-36 -129t-11.5 -84z" />
<glyph unicode="&#x26;" horiz-adv-x="1957" d="M307 408q0 94 47 210.5t119 202.5q-8 35 -8 78q0 86 33.5 179t95 176t165 137.5t226.5 54.5q117 0 207 -52.5t90 -154.5q0 -70 -39 -106.5t-86 -36.5q-37 0 -60.5 21.5t-23.5 56.5q0 37 29 75v2q-53 39 -141 39q-250 0 -314 -323q131 66 248 65q82 0 123 -43t41 -112 q0 -106 -72 -196.5t-190 -90.5q-143 0 -232 74q-68 -147 -67 -242q0 -143 125 -217q129 -74 385 -74q322 0 473 111q82 57 136 161.5t54 208.5q0 109 -94 252q-184 -70 -184 -139q0 -33 45 -49q33 25 69 24q41 0 60.5 -24.5t19.5 -48.5q0 -41 -30.5 -78t-94.5 -37 q-31 0 -67.5 8t-77.5 27.5t-67.5 58.5t-26.5 92q0 70 45 129.5t99 91.5l132 73q78 42 109 65q61 43 109 106.5t57 100.5q2 10 0 27.5t0 31.5q6 39 37.5 68.5t74.5 29.5q33 0 55.5 -21.5t22.5 -53.5q0 -61 -65.5 -182.5t-169.5 -207.5q113 -154 112 -319q0 -154 -88 -306.5 t-233 -234.5q-201 -119 -535 -119q-164 0 -289 29t-196.5 73t-116.5 103.5t-60.5 114t-15.5 111.5zM672 805q43 -59 149 -60q45 0 58 50q14 45 16 79q-10 2 -31 3q-98 0 -192 -72z" />
<glyph unicode="'" horiz-adv-x="780" d="M516 821q0 6 94 469l4 15q2 14 3 19t5.5 20.5t8.5 22.5l11 21q7 13 16 19l21 14q11 8 25.5 11.5t30.5 3.5q31 0 59.5 -19.5t28.5 -66.5q0 -14 -145 -508q-10 -33 -21.5 -47.5t-22.5 -16.5t-40 -2h-14q-64 0 -64 45z" />
<glyph unicode="(" horiz-adv-x="1040" d="M326 141q0 225 71.5 468t239.5 492t407 408q41 27 72 27h53q49 0 50 -23q0 -12 -35 -38q-326 -227 -506 -609.5t-180 -740.5q0 -96 14 -182t33.5 -143.5t48.5 -109.5t48.5 -78t43 -53.5t25.5 -29.5q6 -8 6 -18q0 -23 -37 -23h-64q-37 0 -69 35q-221 221 -221 618z" />
<glyph unicode=")" horiz-adv-x="1040" d="M74 -489q0 10 37 38q326 227 506 609.5t180 738.5q0 154 -35 277.5t-76 183t-76 102.5t-35 53q0 23 64 23h41q16 0 27.5 -4t34 -25.5t57.5 -64.5q170 -221 170 -561q0 -213 -65.5 -444.5t-222.5 -476.5t-380 -411q-57 -41 -78.5 -52t-50.5 -11q-6 0 -14 1t-12.5 1 t-12.5 -1t-12 -1q-47 0 -47 25z" />
<glyph unicode="*" d="M426 831q0 14 5 27.5t12.5 23t16.5 17.5t19 14.5t18.5 9.5t14.5 7l8 2q260 113 279 119v2q-180 98 -226 125q-47 20 -47 59q0 33 29 64.5t68 31.5q12 0 22 -4t29.5 -18.5l40.5 -31.5l67 -55l99 -77q0 8 28.5 162.5t36.5 171.5q29 53 86 53q25 0 42.5 -15.5t17.5 -39.5 q0 -8 -2.5 -19.5t-10.5 -35t-17 -53.5l-29 -92l-42 -132q313 180 332 184q8 2 16 2q27 0 43.5 -18.5t16.5 -42.5q0 -59 -96 -98l-279 -121v-2q82 -35 225 -123q47 -27 47 -62q0 -31 -28.5 -62.5t-67.5 -31.5q-8 0 -14 1t-15.5 6t-18.5 11.5l-29 21.5l-40 33l-59 48l-82 63 q0 -8 -27.5 -162.5t-35.5 -168.5q-29 -55 -86 -56q-25 0 -43.5 15.5t-18.5 40.5q0 10 2 20t10 35l18 53l30 91l43 132q-315 -176 -332 -182q-8 -2 -19 -2q-25 0 -41 18t-16 41z" />
<glyph unicode="+" horiz-adv-x="1957" d="M319 512q0 76 101 76h624q20 92 150 604l2 12q4 10 5 14.5t5 16.5t8 18l11 16q6 9 14 14t18.5 9t22.5 4q31 0 54.5 -22.5t23.5 -54.5q0 -8 -1 -16.5t-4 -17.5t-3 -14l-148 -583h590q94 0 94 -76q0 -78 -98 -78h-625q-14 -61 -153 -616q-23 -90 -80 -90q-33 0 -55.5 20.5 t-22.5 54.5q0 16 27 126l67 271l60 234h-592q-49 0 -72 24.5t-23 53.5z" />
<glyph unicode="," horiz-adv-x="780" d="M190 -299q0 12 21.5 34.5t51.5 49.5t66 85t58 130q-98 12 -98 100q0 61 47 108.5t108 47.5q113 0 113 -145q0 -88 -39 -185.5t-90 -164t-97 -110.5t-63 -44q-18 0 -48 39t-30 55z" />
<glyph unicode="-" horiz-adv-x="909" d="M199 440q0 8 10 51.5t16 55.5q16 25 54 24h509q57 0 58 -45q0 -10 -15 -63q-4 -20 -6 -27.5t-9 -20t-19.5 -16.5t-32.5 -4h-506q-59 0 -59 45z" />
<glyph unicode="." horiz-adv-x="780" d="M291 104q0 57 47 104.5t108 47.5q47 0 76 -29.5t29 -72.5q0 -57 -48 -105.5t-108 -48.5q-47 0 -75.5 29.5t-28.5 74.5z" />
<glyph unicode="/" d="M86 -436q0 27 37 84l1190 1827q37 59 82 59q31 0 53 -21.5t22 -52.5q0 -23 -30 -74l-1194 -1832q-41 -63 -84 -64q-31 0 -53.5 21.5t-22.5 52.5z" />
<glyph unicode="0" d="M283 350q0 86 28.5 246t112.5 375t203 325q162 150 383 150q156 0 258 -85t102 -294q0 -63 -18.5 -177t-56.5 -259.5t-110.5 -289.5t-166.5 -226q-156 -137 -373 -138q-362 0 -362 373zM471 367q0 -236 211 -236q61 0 114.5 21.5t91.5 51t72.5 82t54 89.5t42 100.5t30 88 t21.5 77.5q82 319 82 422q0 227 -217 227q-61 0 -114.5 -19.5t-92.5 -47t-74 -79.5t-56.5 -94t-45 -117t-35.5 -120l-33 -129q-51 -211 -51 -317z" />
<glyph unicode="1" d="M305 45q0 12 10.5 49t21.5 48.5t46 11.5h242l233 938q-141 -90 -264 -91q-51 0 -51 41q0 18 12 60q8 37 21.5 45t58.5 12t92 21q158 55 287 225q27 33 55 33q45 0 45 -39q0 -4 -1 -11.5t-1 -11.5l-276 -1100q-20 -82 -29 -122h219q61 0 61 -43q0 -41 -22 -86 q-12 -25 -53 -25h-637q-70 0 -70 45z" />
<glyph unicode="2" d="M176 4q0 27 27 90q57 143 164.5 256t228.5 178q47 27 144.5 71t159 79t131 89t104 130t34.5 174q0 121 -71.5 170t-175.5 49q-92 0 -174 -42t-129.5 -100t-75 -112.5t-27.5 -87.5q0 -37 37 -37q51 0 103.5 62.5t52.5 113.5q0 18 -12.5 39t-12.5 29q0 16 50 56t65 40 q23 0 46 -44t23 -93q0 -109 -104.5 -234.5t-245.5 -125.5q-74 0 -123 47t-49 121q0 72 46 162t123 170.5t191.5 136t237.5 55.5q72 0 138.5 -17.5t131 -56.5t104.5 -115.5t40 -181.5q0 -164 -75 -271.5t-198 -189.5q-102 -68 -215.5 -118t-201.5 -100t-181 -144 q82 -6 227.5 -48t223.5 -42h6q59 0 109.5 33.5t76 72.5t44 76t20.5 39q8 6 39 6h51q59 0 59 -27q0 -31 -30.5 -91t-81.5 -127.5t-139 -117t-185 -49.5q-94 0 -248.5 61.5t-224.5 61.5q-31 0 -50 -18.5t-40 -71.5q-8 -23 -18.5 -28t-38.5 -5h-58q-53 0 -53 27z" />
<glyph unicode="3" d="M231 256q0 88 39 127t88 39q35 0 59.5 -21.5t24.5 -58.5q0 -31 -17 -59.5t-17 -38.5q0 -16 16 -40t68.5 -48.5t130.5 -24.5q215 0 308 99.5t93 252.5q0 63 -23.5 102.5t-66.5 54.5t-71.5 18.5t-71.5 3.5h-74q-47 0 -47 28q0 14 14 64q10 45 19.5 54t46.5 9q6 0 23.5 -1 t29.5 -1q68 0 109.5 4t98 24.5t97.5 59.5q96 94 96 232q0 156 -225 155q-154 0 -249 -62.5t-95 -129.5q0 -31 31 -31q16 0 30.5 10t14.5 25q0 10 -12.5 27.5t-12.5 25.5q0 16 47 56t68 40q18 0 44.5 -38.5t26.5 -86.5q0 -86 -74.5 -150.5t-166.5 -64.5q-70 0 -118 44 t-48 114q0 139 153.5 258t387.5 119q166 0 271 -76t105 -223q0 -121 -71.5 -235.5t-196.5 -180.5q98 -98 98 -246q0 -166 -92 -284.5t-228 -171t-298 -52.5q-164 0 -263.5 77t-99.5 202z" />
<glyph unicode="4" d="M123 98q0 16 13.5 29.5t46 32t48.5 30.5q197 147 350.5 355.5t239.5 400t140 395.5q25 102 108 103q29 0 51.5 -17.5t22.5 -52.5q0 -66 -86 -291q-199 -526 -600 -893q37 0 71.5 -4t71.5 -13t59.5 -15t66.5 -21.5t58 -19.5q70 303 93 344q33 51 90 51q31 0 52 -20.5 t21 -51.5q0 -12 -86 -360q16 -2 54 -2q41 0 75 4l35 2q16 0 47 -41t31 -53q0 -14 -14.5 -22.5t-71.5 -22.5q-96 -20 -147 -21h-48q-45 -203 -73.5 -262t-89.5 -59q-31 0 -52.5 19.5t-21.5 49.5q0 25 70 291l-85 28q-52 17 -79 24.5t-74 14.5t-100 7q-72 0 -115 -5t-54 -12 l-21 -11q-9 -5 -21 -5q-16 0 -46 40t-30 54z" />
<glyph unicode="5" d="M250 252q0 88 41 128t90 40q37 0 61.5 -22.5t24.5 -57.5q0 -51 -47 -94q39 -127 213 -127q100 0 180 37t123 89t71.5 118.5t38 117.5t9.5 94q0 172 -187 173q-162 0 -274 -105q-6 -4 -12.5 -11t-10.5 -10l-9 -8q-5 -4 -9 -6t-10 -4t-13.5 -3t-15.5 -1h-43q-18 0 -28.5 1 t-20.5 11.5t-10 30.5q0 16 12 59l170 678q8 37 14 49.5t23 12.5q8 0 50 -16.5t121 -34t173 -17.5t184 17.5t142.5 34t56.5 16.5q23 0 22 -27q-16 -94 -30 -112q-10 -12 -75 -35t-177.5 -43.5t-220.5 -20.5q-76 0 -150 13l-96 -383q131 68 266 67q164 0 257 -88t93 -240 q0 -231 -174 -413.5t-461 -182.5q-160 0 -261 76t-101 199z" />
<glyph unicode="6" d="M289 379q0 104 29.5 249.5t74.5 256.5q61 154 154.5 268.5t197 175t199.5 89t189 28.5q113 0 184.5 -46t71.5 -140q0 -80 -40 -118t-87 -38q-35 0 -58.5 21.5t-23.5 56.5q0 45 34 86q-29 47 -108 47q-43 0 -88 -8.5t-113.5 -41t-129 -86t-122 -155.5t-102.5 -240 q197 182 440 183q72 0 126 -24.5t85 -59.5t49.5 -81t24.5 -82t6 -71q0 -70 -28.5 -186.5t-84.5 -202.5q-49 -78 -136 -149.5t-183 -104.5q-88 -29 -197 -29q-70 0 -130 18.5t-115.5 60.5t-87 125t-31.5 198zM469 360q0 -242 211 -241q84 0 150.5 29.5t103.5 64.5t68.5 95.5 t40 86t20.5 74.5q2 10 4 14q23 94 23 146q0 182 -211 182q-154 0 -282 -118t-128 -333z" />
<glyph unicode="7" d="M291 971q0 23 217 430q14 29 23.5 37t35.5 8h56q61 0 61 -27q0 -14 -20 -49q137 76 268 76q49 0 83 -27.5t48 -59.5t40.5 -59.5t61.5 -27.5q111 0 234 141q29 33 61 33h70q45 0 45 -25q0 -8 -5 -16t-14.5 -20.5t-11.5 -16.5q-459 -594 -633 -1243q0 -2 -7 -28.5t-14 -41 t-20.5 -36t-36 -32t-51.5 -10.5q-35 0 -58.5 21.5t-23.5 54.5q0 2 13 64q29 102 63.5 203.5t76.5 193.5l77 165q35 73 81 152l70 120l65 103l44 68q-37 -4 -53 -4q-43 0 -77 22.5t-51.5 48t-47 48.5t-68.5 23h-6q-123 -6 -236.5 -82t-179.5 -183q-23 -37 -32 -44t-38 -7h-53 q-57 0 -57 27z" />
<glyph unicode="8" d="M238 272.5q0 151.5 104 283.5t305 218v2q-33 23 -46 34t-47 44t-50.5 77t-16.5 95q0 66 32 136.5t91.5 135t160.5 105.5t228 43h5q154 0 256 -63.5t102 -194.5q0 -258 -336 -422l31 -22l36 -25q11 -8 35.5 -27.5t37 -34t29.5 -39t25.5 -47t15.5 -53.5t7 -63 q0 -74 -34.5 -153t-102.5 -153.5t-186.5 -123t-268.5 -48.5q-180 0 -296.5 72t-116.5 223.5zM418 299q0 -94 71.5 -137t184.5 -43q92 0 163.5 23.5t110.5 57t64.5 75.5t34 73t8.5 53q0 84 -97 152q-152 111 -170 117q-6 2 -12 2q-18 0 -72.5 -24.5t-120 -68.5t-115.5 -119 t-50 -161zM668 1087q0 -20 8 -39.5t17 -34t35 -34.5l42 -33l57 -41l66 -45q299 113 299 307q0 80 -62.5 114t-146.5 34q-139 0 -227 -67t-88 -161z" />
<glyph unicode="9" d="M266 166q0 78 40 114.5t87 36.5q35 0 59.5 -21.5t24.5 -56t-33 -81.5q43 -39 131 -39q41 0 82 7t107.5 38t123 83t117 153.5t101.5 238.5q-197 -182 -442 -182q-88 0 -149.5 34.5t-89.5 89t-39 101.5t-11 92q0 74 25.5 179.5t64.5 174.5q25 45 63.5 91.5t104 101.5 t166 90t215.5 35q147 0 250.5 -90t103.5 -303q0 -209 -92 -480q-106 -287 -303 -441.5t-424 -154.5q-123 0 -203 44.5t-80 144.5zM565 795q0 -184 211 -185q154 0 283 121t129 350q0 233 -197 234q-152 0 -258 -94q-59 -53 -89 -116t-54 -163q-25 -94 -25 -147z" />
<glyph unicode=":" horiz-adv-x="780" d="M469 815q0 57 47 104.5t109 47.5q47 0 75.5 -30t28.5 -73q0 -57 -48 -105t-108 -48q-47 0 -75.5 29.5t-28.5 74.5zM291 104q0 57 47 104.5t108 47.5q47 0 76 -29.5t29 -72.5q0 -57 -48 -105.5t-108 -48.5q-47 0 -75.5 29.5t-28.5 74.5z" />
<glyph unicode=";" horiz-adv-x="780" d="M467 815q0 57 47 104.5t109 47.5q47 0 75.5 -30t28.5 -73q0 -57 -48 -105t-108 -48q-47 0 -75.5 29.5t-28.5 74.5zM190 -299q0 12 21.5 34.5t51.5 49.5t66 85t58 130q-98 12 -98 100q0 61 47 108.5t108 47.5q113 0 113 -145q0 -88 -39 -185.5t-90 -164t-97 -110.5 t-63 -44q-18 0 -48 39t-30 55z" />
<glyph unicode="&#x3c;" horiz-adv-x="1957" d="M385 512q0 12 3 22.5t10.5 18.5l13.5 14t17 12.5t16.5 9.5t17.5 9t14 6l1385 633q33 16 51 16q29 0 52.5 -21.5t23.5 -53.5q0 -25 -16.5 -45.5t-29 -26.5l-45.5 -21l-1271 -583l65 -37l899 -535q66 -41 66 -84q0 -31 -21.5 -53t-56.5 -22q-16 0 -57 20l-1069 635l-11 6 q-10 6 -13 8t-12 9.5t-12.5 12.5l-9.5 13t-8 17.5t-2 19.5z" />
<glyph unicode="=" horiz-adv-x="1957" d="M260 268.5q0 28.5 19.5 51t48.5 24.5q8 2 53 2h1352q39 0 61.5 -16.5t27.5 -30.5t5 -31q0 -76 -98 -75h-1371q-57 0 -77.5 23.5t-20.5 52zM383 753.5q0 77.5 96 77.5h1374q39 0 61.5 -16t28 -30.5t5.5 -30.5q0 -78 -97 -78h-1372q-96 0 -96 77.5z" />
<glyph unicode="&#x3e;" horiz-adv-x="1957" d="M221 -154q0 10 2 19.5t6 15.5t10.5 13.5t11.5 11.5t14 10t14.5 8t15.5 7l14 8l1272 581l-151 90l-814 484q-63 39 -63 82q0 31 21.5 54t54.5 23q16 0 57 -20l1069 -637q68 -39 68 -84q0 -12 -3 -22.5t-11 -18.5l-12 -14q-5 -6 -17.5 -13.5t-15.5 -9.5t-17 -8l-14 -6 l-1385 -635q-29 -14 -53 -14q-33 0 -53.5 23t-20.5 52z" />
<glyph unicode="?" d="M459 1047q0 129 163.5 264t387.5 135q143 0 231 -66.5t88 -191.5q0 -182 -176 -314q-29 -20 -180.5 -105t-167.5 -99q-31 -27 -31 -62q0 -29 37 -28q63 0 100 47q6 6 12.5 17t9.5 14.5t13 6.5t27 3h53q2 0 8 1t8 1q45 0 45 -29q0 -70 -98 -143.5t-221 -73.5 q-80 0 -121 43t-41 113q0 143 119 229q49 37 176 101.5t194.5 122t67.5 130.5q0 49 -41 88t-143 39q-119 0 -215 -60.5t-105 -101.5q-2 -6 0.5 -19t2.5 -22q0 -49 -37 -84.5t-82 -35.5q-37 0 -60.5 21.5t-23.5 58.5zM553 106q0 57 46 103.5t106 46.5q45 0 76.5 -29.5 t31.5 -76.5q0 -55 -46 -102.5t-105 -47.5q-45 0 -77 29.5t-32 76.5z" />
<glyph unicode="@" horiz-adv-x="1957" d="M346 520q0 158 64.5 316.5t184.5 294t313.5 219.5t424.5 84q285 0 458 -137.5t173 -395.5q0 -154 -58.5 -304.5t-162 -250.5t-221.5 -100q-106 0 -131 108q-170 -109 -347 -108q-172 0 -274 89t-102 249q0 98 38.5 200.5t111.5 190.5t189.5 144.5t258.5 56.5 q133 0 225 -54.5t127 -154.5h12q51 0 51 -27q0 -6 -4 -31q-117 -469 -116 -471q0 -37 34 -37q51 0 93.5 59.5t66 141.5t35.5 153.5t12 112.5q0 203 -136 307.5t-368 104.5h-4q-178 -2 -330.5 -67.5t-250 -170t-151.5 -232.5t-54 -257q0 -55 11 -106.5t44 -108.5t87.5 -98 t150.5 -69t221 -28q209 0 436.5 37t229.5 37h75q43 0 43 -22q0 -20 -77 -52q-377 -156 -738 -155q-154 0 -272.5 35.5t-187 90t-112.5 128t-58.5 140t-14.5 138.5zM840 610q0 -113 69.5 -161t161.5 -48q145 0 238.5 78t128.5 164q10 20 24.5 80.5t14.5 89.5 q0 96 -63.5 152.5t-174.5 56.5q-182 0 -290.5 -130t-108.5 -282z" />
<glyph unicode="A" horiz-adv-x="1859" d="M156 43q0 16 11 54t26 48q12 8 57 9q37 0 106 4l805 1235q37 55 96 55h72q23 0 37 -9t18.5 -21.5t8.5 -33.5q10 -53 186 -1230h100q59 0 60 -43q0 -12 -10 -48q-10 -39 -22.5 -51t-45.5 -12h-361q-61 0 -61 43q0 4 3 23.5t13.5 46t22.5 34.5q12 6 41 7h57l-41 270h-594 q-20 -2 -34.5 -17.5t-67.5 -99.5l-98 -151h18q12 0 18.5 -1t17.5 -2t17 -4.5t12.5 -8.5t9.5 -12t3 -17q0 -6 -2 -14.5t-4 -19.5t-4 -20q-8 -35 -21.5 -45t-40.5 -12h-350q-59 0 -59 43zM815 578h496l-92 622z" />
<glyph unicode="B" horiz-adv-x="1777" d="M231 45q0 6 3.5 24.5t13.5 44t22 33.5q12 6 52 7h94l278 1114h-80q-66 0 -65 43q0 41 20 82q12 29 58 28h684q358 0 450 -168q29 -55 29 -123q0 -109 -77 -205t-218 -149q-35 -12 -104 -33q123 -18 211 -85.5t88 -190.5q0 -45 -17.5 -100.5t-63.5 -122t-115 -119.5 t-184.5 -89t-260.5 -36h-760q-58 0 -58 45zM602 154h408q147 0 251.5 31.5t151.5 81.5t66.5 94.5t19.5 87.5q0 92 -63.5 145t-169.5 63q-35 4 -105 5h-434zM768 817h342q283 0 412 119q82 78 82 160q0 68 -65.5 120t-242.5 52h-417z" />
<glyph unicode="C" horiz-adv-x="1826" d="M344 516q0 121 39 249t121 250t195.5 218t277.5 154.5t354 58.5q276 0 430 -180h2q29 33 68 82q59 72 74.5 85t40.5 13q37 0 36 -31q0 -6 -59 -244.5t-59 -240.5q-6 -27 -17.5 -33t-36.5 -6h-57q-43 0 -53 6t-10 31v41q0 143 -88.5 232t-239.5 89q-115 0 -226.5 -26.5 t-224 -85t-201.5 -171t-137 -266.5q-33 -104 -32 -204q0 -94 31.5 -167t82 -117t120 -72.5t140 -39t148.5 -10.5q174 0 316.5 92t195.5 232q2 6 5 14t4 12t4 9.5t4 6.5t6.5 4t9.5 3t12 1t16 1h23h29q59 0 59 -27q0 -18 -8 -43q-70 -201 -287 -330t-475 -129 q-281 0 -457 136.5t-176 402.5z" />
<glyph unicode="D" horiz-adv-x="1908" d="M227 43q0 41 21 82q12 29 61 29h103l278 1114h-86q-59 0 -59 43q0 8 10 55q10 37 24.5 47t57.5 10q6 0 19.5 -1t19.5 -1h624q2 0 15.5 1t23.5 1q82 0 159 -13t155 -50t134 -92.5t92 -147.5t36 -209q0 -96 -24.5 -204.5t-93 -237.5t-172 -230.5t-280 -170t-395.5 -68.5 h-665q-58 0 -58 43zM604 154h352q608 0 744 553q23 98 22 180q0 111 -36.5 187.5t-106.5 117.5t-151.5 58.5t-188.5 17.5h-358z" />
<glyph unicode="E" horiz-adv-x="1626" d="M225 43q8 86 39 104q10 6 51 7h95l278 1110h-82q-66 0 -65 43q0 41 20 82q12 29 57 28h1043q61 0 61 -49l-43 -369q-6 -37 -20 -46t-47 -9h-39q-35 0 -47.5 12.5t-12.5 40.5q0 14 8.5 85t8.5 128v39q-74 14 -268 15h-377l-2 -2l-113 -449h143q123 0 187 6q16 43 28.5 88 t17.5 60.5t18.5 26t41.5 10.5h41q61 0 62 -43q0 -6 -26 -109l-50 -203l-25 -100q-2 -6 -7 -24.5t-6 -22.5t-7 -14.5t-12.5 -12.5t-17.5 -5t-28 -3h-32q-63 0 -64 41q0 12 4 32.5t11.5 53.5t11.5 59q-57 4 -174 4h-154l-127 -503h320q184 0 264 6t96.5 13t30.5 30 q41 66 129 276q12 25 24.5 35t42.5 10h39q63 0 64 -39q0 -14 -14 -47l-166 -393q-12 -27 -25.5 -36t-40.5 -9h-1087q-58 0 -58 43z" />
<glyph unicode="F" horiz-adv-x="1560" d="M227 43q0 6 3 24.5t12.5 45t23.5 34.5q10 6 51 7h95l278 1110h-88q-59 0 -59 43q0 4 3 23.5t13 46t25 32.5q14 8 37 8h1013q57 0 58 -49l-43 -369q-4 -33 -18.5 -44t-47.5 -11h-43q-59 0 -59 49q0 2 9 86t9 123q0 35 -6 45q-18 16 -365 17h-241l-2 -2l-119 -478h143 q96 0 172 9q18 43 31.5 99t26 70.5t49.5 14.5h41q61 0 61 -43q0 -8 -24 -109l-51 -201q-26 -101 -25 -104q-8 -33 -10 -40t-11.5 -21.5t-21.5 -16.5t-35 -2h-33q-63 0 -63 41q0 14 11 62.5t15 83.5q-53 4 -161 4h-154l-119 -477h125q61 0 61.5 -43t-20.5 -84 q-14 -27 -55 -27h-434q-58 0 -58 43z" />
<glyph unicode="G" horiz-adv-x="1966" d="M344 516q0 168 68.5 333t191.5 298t313.5 216t411.5 83q276 0 430 -180h2q137 162 148 170q12 10 35 10q39 0 38 -31q0 -6 -59 -241l-61 -244q-4 -18 -12.5 -26.5t-15.5 -10.5t-24 -2h-79q-27 0 -35 8t-8 27v43q0 141 -85 231t-237 90q-211 0 -377 -72.5t-260 -188.5 t-141 -241.5t-47 -250.5q0 -406 553 -406q82 0 145.5 6t104 11.5t71.5 23.5t44.5 24.5t26.5 35t14 33.5t9 40l17.5 69t17.5 68h-221q-59 0 -59 43q0 14 8 43q12 49 25.5 58.5t52.5 9.5h526q53 -2 53 -43q0 -6 -3 -24.5t-12 -45t-24 -34.5q-12 -6 -53 -7h-96l-103 -405 q-8 -33 -26 -33q-27 0 -72 68q-94 -57 -220 -76t-327 -19h-14q-88 0 -172 14.5t-170 51.5t-149.5 96.5t-103.5 155.5t-40 221z" />
<glyph unicode="H" horiz-adv-x="1945" d="M227 43q0 16 11.5 54t25.5 48q12 8 51 9h97l278 1114h-82q-63 0 -63 45q0 6 3 24.5t12 44t24 33.5q12 6 37 6h393q57 0 57 -43q0 -18 -10 -55t-27 -47q-12 -8 -51 -8h-96l-113 -451h803l115 451h-82q-66 0 -66 45q0 4 3 23.5t13.5 45t22.5 33.5q12 6 39 6h391 q57 0 58 -43q0 -18 -10.5 -55t-26.5 -47q-12 -8 -52 -8h-96l-276 -1114h80q66 0 65 -43q0 -4 -3 -23.5t-13 -45.5t-22.5 -34t-39.5 -8h-391q-59 0 -59 43q0 16 11 54t26 48q12 8 53 9h96l127 508h-805l-127 -508h82q66 0 66 -43q0 -4 -3 -23.5t-13.5 -45.5t-22.5 -34t-39 -8 h-391q-60 0 -60 43z" />
<glyph unicode="I" horiz-adv-x="944" d="M219 43q0 16 10.5 54t26.5 48q12 8 53 9h103l278 1114h-88q-66 0 -65 43q0 6 3 24.5t12 45t23 34.5q12 6 39 6h408q57 0 57 -43q0 -18 -10 -55t-27 -47q-12 -8 -53 -8h-102l-279 -1114h88q35 0 50.5 -8.5t15.5 -34.5q-8 -86 -39 -105q-10 -6 -37 -6h-407q-60 0 -60 43z " />
<glyph unicode="J" horiz-adv-x="1318" d="M258 193q0 76 42 113.5t89 37.5q41 0 67.5 -24.5t26.5 -63.5q0 -43 -34 -86q63 -39 157 -39q51 0 92 11.5t69 33t47.5 42t31.5 50t18 47t12.5 43t6.5 27.5l198 791q6 31 23 92h-135q-59 0 -60 43q0 45 21 82q12 29 57 28h393q59 0 60 -43q-8 -86 -39 -102q-12 -8 -43 -8 h-64l-24 -101l-203 -807q-16 -78 -31 -114q-47 -121 -165.5 -195t-278.5 -74q-152 0 -243 60t-91 156z" />
<glyph unicode="K" horiz-adv-x="1925" d="M231 43q0 16 11.5 54t25.5 48q12 8 51 9h97l278 1114h-82q-63 0 -63 45q0 6 3 24.5t12 44t24 33.5q12 6 37 6h383q57 0 57 -43q0 -6 -2 -23.5t-11.5 -44t-23.5 -34.5q-12 -8 -51 -8h-96l-152 -611l866 613q-25 18 -24 41q0 14 10 55q10 37 24.5 46t41.5 9h370 q57 0 58 -43q0 -49 -23 -86q-12 -25 -49 -24h-29q-96 0 -123.5 -4t-56.5 -25l-498 -352l-63 -43l389 -688h78q33 0 49 -2t28.5 -12.5t12.5 -30.5q0 -12 -10 -54q-6 -23 -11.5 -33t-17.5 -17t-37 -7h-330q-57 0 -57 43q0 6 10 53q10 35 22.5 46.5t45.5 11.5l-326 579 l-356 -252q-4 -4 -16.5 -11t-14.5 -9t-11 -16.5t-13 -31t-14.5 -54t-21.5 -84l-28 -121.5h80q66 0 66 -43q0 -4 -3.5 -23.5t-13.5 -45.5t-22.5 -34t-38.5 -8h-381q-60 0 -60 43z" />
<glyph unicode="L" horiz-adv-x="1497" d="M225 43q0 18 11.5 55t27.5 47q12 8 51 9h95l278 1114h-86q-59 0 -59 43q0 6 3 24.5t12 45t24 34.5q10 6 36 6h433q59 0 59 -43q-8 -84 -39 -102q-10 -8 -33 -8h-153l-279 -1114h246h131q43 0 87 6t56.5 8t31 21.5t21.5 27.5t19 45q25 53 43 104l28 74l16 45 q7 20 15.5 27.5t19.5 10.5t32 3h43q57 0 57 -43q0 -8 -154 -434q-10 -29 -23 -39t-44 -10h-948q-58 0 -58 43z" />
<glyph unicode="M" horiz-adv-x="2338" d="M240 43q0 14 10 52t26 50q12 8 54 9q31 0 96 4l276 1110h-81q-63 0 -64 43q0 16 9 53t26 49q12 8 41 8h289q39 0 54 -11t21 -56l195 -1057q8 -37 20 -111l791 1155l14 21l14 18q3 4 12 14.5t14 13.5t15.5 8t21.5 6t26 1q6 0 14 -1t14 -1h244q57 0 57 -43q0 -10 -4 -26.5 t-4 -20.5q-10 -41 -24.5 -52t-44.5 -11h-107l-278 -1114h81q63 0 64 -43q0 -6 -3 -24.5t-12.5 -44.5t-21.5 -34t-41 -8h-360q-61 0 -62 43q8 84 39 102q12 8 51 9h95l272 1089h-2q-8 -14 -84 -127l-725 -1061q-39 -55 -100 -55h-33q-31 0 -46.5 12.5t-18.5 23.5t-9 46 l-188 1026q-16 82 -23 121h-2l-268 -1073q29 -2 84 -2q61 0 61 -43q0 -12 -10 -54q-12 -57 -63 -57h-365q-57 0 -57 43z" />
<glyph unicode="N" horiz-adv-x="1945" d="M231 43q0 14 10.5 52t26.5 50q12 8 54 9q31 0 96 4l276 1110h-80q-66 0 -65 45q8 82 37 100q12 8 37 8h247q31 0 43.5 -10t30.5 -47l535 -1051l237 953q-29 2 -84 2q-61 0 -61 43q0 8 10 53q10 37 23.5 47t40.5 10h364q57 0 57 -43q0 -16 -9 -53t-25 -49q-12 -8 -56 -8 q-63 0 -94 -2l-31 -123l-272 -1088q-6 -27 -17.5 -39t-20.5 -14t-32 -2h-39q-29 0 -41 7t-26 34l-569 1120l-252 -1005q29 -2 84 -2q61 0 61 -43q0 -12 -10 -54q-12 -57 -64 -57h-364q-58 0 -58 43z" />
<glyph unicode="O" horiz-adv-x="1871" d="M340 492q0 125 38 256t117.5 255.5t190.5 223t269.5 159t340.5 60.5q82 0 158 -14.5t156 -51.5t138 -94t95 -151.5t37 -214.5q0 -129 -39 -260.5t-119 -254t-190.5 -218t-267 -153t-336.5 -57.5q-270 0 -429 133.5t-159 381.5zM545 539q0 -113 39 -193t104.5 -121 t135 -59.5t147.5 -18.5q147 0 272 53.5t205 136.5t136 186.5t81 200.5t25 183q0 106 -39 183t-105.5 116t-137.5 56.5t-153 17.5q-145 0 -266 -47t-201.5 -122t-137 -173t-81 -198.5t-24.5 -200.5z" />
<glyph unicode="P" horiz-adv-x="1712" d="M229 43q0 18 10.5 55t26.5 47q12 8 51 9h97l278 1114h-86q-59 0 -59 45q8 84 39 102q10 6 37 6h696q82 0 155.5 -15t145.5 -50t114 -103.5t42 -162.5q0 -178 -148.5 -337t-419.5 -190q-47 -6 -143 -6h-354l-101 -403h82q66 0 66 -43q0 -4 -3 -23.5t-13.5 -45.5t-22.5 -34 t-39 -8h-391q-60 0 -60 43zM745 711h322q86 0 149.5 7t137 30.5t126 78t81.5 136.5q18 45 18 98q0 164 -201 196q-55 10 -166 11h-329z" />
<glyph unicode="Q" horiz-adv-x="1871" d="M340 492q0 125 38 257t119 256.5t191.5 223t268 158t337.5 59.5q270 0 428 -137.5t158 -388.5q0 -106 -31.5 -226.5t-101.5 -252.5t-205 -245.5t-315 -172.5q10 -117 36.5 -171.5t98.5 -54.5q76 0 146.5 54.5t101.5 136.5q16 47 43 47q14 0 24.5 -12.5t10.5 -24.5 q0 -63 -74 -191q-121 -205 -293 -204q-47 0 -83 14t-57.5 47t-34.5 62.5t-18.5 84t-6.5 89t-1 96.5q-92 -18 -190 -19q-270 0 -430 132.5t-160 382.5zM532 522q0 -246 207 -338q31 94 114 135t161 41q158 0 194 -180q111 37 198 106.5t138 146.5t85 166t46.5 159.5 t12.5 132.5q0 111 -39 190.5t-105.5 120.5t-137.5 59.5t-151 18.5q-145 0 -268 -50t-205 -129t-140 -180.5t-84 -203t-26 -195.5zM895 161.5q0 -18.5 74 -18.5q70 0 125 9q-33 55 -101 55q-43 0 -70.5 -13.5t-27.5 -32z" />
<glyph unicode="R" horiz-adv-x="1843" d="M229 43q0 16 11.5 54t25.5 48q12 8 51 9h97l278 1114h-82q-63 0 -63 45q0 43 20 84q14 25 58 24h567q166 0 272 -24q94 -25 158 -67t88.5 -89t32.5 -77.5t8 -61.5q0 -121 -90 -228.5t-252 -175.5q106 -80 107 -196q0 -41 -29 -150.5t-29 -134.5q0 -45 33 -65.5t72 -20.5 q33 0 55 20.5t35.5 47t17.5 30.5q12 12 78 13q72 0 72 -39q0 -59 -79 -142.5t-198 -83.5q-66 0 -125 16.5t-109 69t-50 134.5q0 41 29.5 153.5t29.5 136.5q0 147 -330 148h-264l-119 -481h80q66 0 66 -43q0 -6 -3.5 -24.5t-12.5 -44.5t-23.5 -34t-44.5 -8h-375q-64 0 -64 43 zM764 788h270q301 0 418 99q100 82 100 188q0 66 -37.5 108t-109.5 59.5t-125 21.5t-129 4h-268z" />
<glyph unicode="S" horiz-adv-x="1433" d="M195 6q0 10 49 208t55 214q8 31 17.5 38t33.5 7h60q23 0 32 -1t17 -8t8 -22q0 -8 -4 -34.5t-4 -45.5q0 -66 31.5 -113.5t84 -71t107.5 -35t117 -11.5q180 0 274 99.5t94 201.5q0 61 -31.5 103.5t-90 64t-118.5 34.5l-140 30q-79 16 -128 34q-86 33 -148 104.5t-62 178.5 q0 74 34.5 151.5t99 149.5t175 118t248.5 46q221 -2 346 -141q45 63 70.5 95t35.5 38t21 6h4q43 4 43 -29q0 -14 -52.5 -220t-54.5 -208q-8 -39 -49 -39h-57q-37 0 -49.5 7.5t-12.5 25.5q0 6 2 26.5t2 36.5q0 111 -62.5 185t-213.5 74q-164 0 -257 -87.5t-93 -183.5 q0 -55 32.5 -93t91 -59.5t119 -35t137 -28.5t124.5 -34q90 -35 152.5 -111.5t62.5 -189.5q0 -80 -35 -165t-101.5 -161.5t-181.5 -127t-254 -50.5q-119 0 -212 28t-125.5 50.5t-71.5 59.5q-66 -96 -87.5 -117t-46.5 -21q-38 0 -38 29z" />
<glyph unicode="T" horiz-adv-x="1740" d="M391 979l127 385q10 29 23.5 38t42.5 9h1253q59 0 59 -47q0 -6 -14 -95l-30 -182q-15 -92 -15 -96q-6 -35 -20.5 -44t-47.5 -9h-38q-33 0 -46.5 10t-13.5 35q0 16 13.5 101t17.5 163q-63 8 -195 8h-227l-274 -1101h159q51 0 52 -43q0 -51 -23 -88q-12 -23 -53 -23h-512 q-23 0 -34 1t-23.5 11.5t-12.5 30.5q0 10 4 26.5t4 22.5q14 49 33 58q12 4 31 4h178l274 1101h-157q-8 0 -23.5 1t-23.5 1q-143 0 -220 -14q-27 -55 -52 -126l-41 -113q-15 -43 -25 -54q-14 -12 -41 -12h-54q-55 0 -55 41z" />
<glyph unicode="U" horiz-adv-x="1902" d="M477 360q0 45 25 164l131 523l55 221h-82q-63 0 -63 45q0 6 3 24.5t12 44t24 33.5q12 6 39 6h391q57 0 57 -43q0 -18 -10 -55t-27 -47q-12 -8 -51 -8h-96l-60 -238l-131 -526q-23 -98 -22 -144q0 -229 305 -229q406 0 504 381q2 8 2 12l184 742q-27 2 -84 2q-61 0 -61 43 q0 8 10 53q10 37 23.5 47t41.5 10h373q57 0 58 -43q0 -14 -10.5 -52t-26.5 -50q-12 -8 -54 -8q-63 0 -96 -2l-11 -45q-7 -29 -9 -39l-166 -664q-20 -86 -37 -127q-74 -186 -247 -300t-413 -114q-209 0 -345 94t-136 289z" />
<glyph unicode="V" horiz-adv-x="1859" d="M442 1311q0 41 21 82q14 29 57 28h352q61 0 62 -43q-8 -86 -37 -102q-12 -8 -41 -8h-53l190 -1047l713 1047q-72 0 -86 18q-6 10 -6 25q0 6 2 14t4 19.5t4 19.5q12 57 62 57h344q57 0 57 -43q0 -14 -10.5 -52t-26.5 -50q-12 -8 -57 -8q-33 0 -103 -4q-16 -27 -50 -76 l-38 -55l-747 -1096q-37 -53 -99 -53h-71q-37 0 -48.5 15t-17.5 48l-198 1096q-18 94 -23 125h-96q-60 0 -60 43z" />
<glyph unicode="W" horiz-adv-x="2514" d="M438 1313q0 4 3 23.5t13.5 45t22.5 33.5q12 6 41 6h328q61 0 61 -43q0 -16 -8 -41q-6 -27 -8 -34t-10.5 -18t-19.5 -14t-32 -3h-63q6 -86 31 -334l43 -448q18 -200 18 -263l37 70l168 289l410 686h-50q-55 0 -55 45q0 14 10.5 51t24.5 49q12 8 43 8h330q61 0 61 -43 q0 -16 -8 -41q-14 -53 -29 -61q-12 -8 -41 -8h-65l63 -647l21 -246l6 -82l2 -70l110 195l504 848q-18 2 -57 2q-61 0 -62 45q8 84 37 102q12 6 41 6h328q57 0 57 -43q0 -14 -9 -51t-21 -47q-14 -12 -52 -12q-68 0 -82 -4t-28 -25l-703 -1173q-4 -6 -9 -15.5t-8 -13.5 t-8 -12.5t-8 -11.5l-9 -8q-5 -5 -9 -8t-11 -6t-13.5 -4t-14.5 -2t-18 -1h-47q-10 0 -19.5 1t-15.5 4t-11.5 4t-8.5 7t-5 8t-4 11.5t-2 11.5t-2 14t-2 14l-72 738q-4 37 -10 100l-11 117q-5 53 -9 100h-2q-27 -61 -98 -187l-89 -161l-336 -571q-104 -172 -120 -189 q-20 -23 -68 -22h-55q-33 0 -43.5 14t-14.5 45l-86 889l-35 336h-75q-62 0 -62 45z" />
<glyph unicode="X" horiz-adv-x="1859" d="M145 43q0 49 23 86q14 25 53 25h23q94 0 117.5 5t48.5 29l575 557l-295 523h-121q-72 0 -71 43q0 6 2 14t4 19.5t4 19.5q8 39 24.5 49t61.5 10q8 0 33.5 -1t42.5 -1h278q55 0 56 -41q0 -14 -9 -55q-10 -39 -24.5 -48t-44.5 -9l211 -373l385 373q-47 2 -47 43q0 16 8 49 q10 39 23.5 50t45.5 11h361q57 0 57 -43t-20 -84q-16 -27 -56 -26h-16q-98 0 -121.5 -4t-48.5 -27l-494 -479l342 -604h121q39 0 55.5 -8.5t16.5 -34.5q0 -8 -10 -54q-6 -20 -10.5 -29.5t-17.5 -18.5t-38 -9h-375q-57 0 -57 43q0 6 10 53q10 39 24.5 48.5t45.5 9.5l-258 456 l-469 -456q47 -2 47 -43q0 -16 -8 -50q-10 -39 -22.5 -50t-47.5 -11h-360q-58 0 -58 43z" />
<glyph unicode="Y" horiz-adv-x="1859" d="M434 1311q0 33 19 82q12 29 59 28h377q55 0 55 -43q0 -14 -9 -51t-26 -49q-12 -10 -53 -10l266 -525l531 525q-49 2 -49 45q0 10 10 47q10 39 22.5 50t44.5 11h355q57 0 57 -43q0 -16 -10 -54t-27 -48q-12 -8 -59 -8q-100 0 -118.5 -5.5t-51.5 -37.5l-633 -627l-6 -6 q-20 -23 -37 -78l-25 -96l-65 -264h82q66 0 65 -43q-10 -88 -39 -105q-12 -6 -39 -6h-385q-59 0 -59 43q0 16 11.5 54t25.5 48q12 8 51 9h98l105 415l-356 699h-125q-62 0 -62 43z" />
<glyph unicode="Z" horiz-adv-x="1564" d="M203 35q0 68 53 121l1157 1112h-244q-371 0 -411 -25q-49 -33 -113 -237q-12 -39 -25.5 -48.5t-44.5 -9.5h-40q-57 0 -58 41q0 18 56.5 211t70.5 207q12 14 49 14h1012q49 0 49 -32q0 -63 -51 -115l-1153 -1108h268q211 0 306.5 6t115 14.5t33.5 32.5q39 68 102 268 q12 39 24.5 49.5t49.5 10.5h35q63 0 63 -41q0 -18 -12 -47q-125 -403 -131 -416q-16 -41 -43 -43h-18h-1051q-49 0 -49 35z" />
<glyph unicode="[" horiz-adv-x="780" d="M184 -469q0 10 23 100l463 1854q8 27 20 39t41 12h248q55 0 55 -43q0 -14 -10 -53q-10 -35 -23.5 -46.5t-48.5 -11.5h-133l-434 -1740h119q57 0 57 -43q0 -16 -10 -52t-23 -47q-14 -12 -43 -12h-241q-60 0 -60 43z" />
<glyph unicode="\" d="M557 1456q0 37 23.5 57.5t52.5 20.5q20 0 35.5 -9t23.5 -19.5t15.5 -34t9.5 -38t6 -46l6 -46.5l262 -1730q0 -4 2 -13.5t3 -16.5t1 -13q0 -29 -21.5 -53.5t-53.5 -24.5q-18 0 -31.5 5t-23 17.5t-14.5 23.5t-10 32.5t-7 36l-5.5 40l-5.5 40.5l-262 1726q-6 43 -6 45z" />
<glyph unicode="]" horiz-adv-x="780" d="M-2 -469q0 2 10 53q10 35 23.5 46.5t48.5 11.5h135l434 1740h-121q-55 0 -55 41q0 18 6 41q2 4 4 13.5t3 13.5t3.5 11t4.5 10.5t6 8.5t8 7t9 4t13.5 3t16.5 1h235q66 0 66 -43q0 -8 -4 -25l-482 -1929q-8 -29 -21 -40t-40 -11h-248q-55 0 -55 43z" />
<glyph unicode="^" horiz-adv-x="1564" d="M567 1065q0 6 1 11t2 9.5t4 7.5l7 6q3 3 7 6t7 4t9 4t9 4t10.5 3t9.5 4t112 47l227 91q116 45 124 45q14 0 104 -45q297 -152 311 -162q14 -12 15 -29q0 -20 -34 -68.5t-58 -48.5q-20 0 -180 85t-179 87h-2q-20 0 -226 -86t-224 -86q-25 0 -38.5 28t-15.5 54z" />
<glyph unicode="_" horiz-adv-x="1957" d="M100 -637q0 63 82 64h1270q84 0 84 -64q0 -61 -82 -61h-1274q-80 0 -80 61z" />
<glyph unicode="`" d="M649 1362q0 37 31 68.5t70 31.5q29 0 88 -41l123 -84q90 -61 105 -74.5t15 -29.5q0 -18 -37.5 -65.5t-60.5 -47.5q-16 0 -82 41q-207 129 -223 144q-29 24 -29 57z" />
<glyph unicode="a" d="M262 322q0 145 62.5 292.5t195.5 256t303 108.5q129 0 228 -84q39 51 90 51q35 0 55.5 -20.5t20.5 -51.5q0 -10 -17 -75l-135 -541q0 -4 -2 -13t-3 -16.5t-1 -13.5q0 -31 22.5 -51.5t48.5 -20.5q37 0 59.5 42t35 92.5t20.5 58.5q12 10 41 10h66q47 0 47 -29 q0 -35 -51 -145q-96 -184 -241.5 -184t-209.5 116q-154 -117 -311 -116q-145 0 -234.5 88t-89.5 246zM449 319q0 -94 47 -135t118 -41q104 0 194.5 84t123.5 213q37 139 37 174q0 119 -52.5 164t-121.5 45q-96 0 -169 -60.5t-109 -149.5t-52 -165t-16 -129z" />
<glyph unicode="b" horiz-adv-x="1171" d="M268 319q0 76 35 220l176 702q-23 2 -51.5 3t-41.5 1t-27.5 4t-19.5 13.5t-5 25.5q0 61 28 96l3 2q12 14 258 33q4 0 11 1t9 1q47 0 47 -39q0 -18 -17 -87l-47 -185l-51 -205q129 74 248 74q55 0 108.5 -15.5t104.5 -51t82 -104.5t31 -163q0 -102 -37 -214t-103.5 -213 t-177 -165.5t-243.5 -64.5q-145 0 -232.5 87.5t-87.5 243.5zM444 322q0 -178 170 -179q96 0 170 60.5t110 149.5t52.5 165t16.5 129q0 96 -48.5 136t-117.5 40q-90 0 -173 -66.5t-128 -174.5q-12 -33 -32 -119t-20 -141z" />
<glyph unicode="c" horiz-adv-x="1171" d="M266 342q0 240 173 438.5t448 198.5q123 0 201.5 -54.5t78.5 -142.5q0 -72 -40 -107.5t-85 -35.5q-35 0 -59.5 22.5t-24.5 57.5q0 33 27 74q-51 31 -123 30q-96 0 -172 -39t-119 -95t-70.5 -125.5t-36.5 -124t-9 -95.5q0 -201 239 -201q109 0 185.5 17.5t107.5 37 t53.5 37t32.5 17.5q16 0 53 -40t37 -54q0 -12 -15 -32t-53 -43.5t-92.5 -45t-141.5 -35.5t-191 -14q-213 0 -308.5 100t-95.5 254z" />
<glyph unicode="d" d="M262 322q0 109 39 223t107.5 211.5t178 160t236.5 62.5q129 0 224 -82l86 344q-20 2 -48 3t-41.5 2t-29 4t-21.5 12.5t-6 25.5q0 14 10.5 52t24.5 49q10 8 79.5 16t133.5 12l63 4q45 0 45 -41q0 -8 -4 -28l-270 -1082q-10 -45 -10 -55q0 -33 23.5 -52.5t47.5 -19.5 q37 0 58.5 43t35 93.5t23.5 58.5t39 8h55q57 0 58 -31q0 -16 -18.5 -65t-51.5 -109.5t-93 -106.5t-130 -46q-145 0 -209 116q-154 -117 -311 -116q-139 0 -231.5 85t-92.5 249zM449 319q0 -94 47 -135t118 -41q104 0 194.5 84t123.5 211q37 150 37 176q0 117 -52.5 163 t-121.5 46q-96 0 -169 -60.5t-109 -149.5t-52 -165t-16 -129z" />
<glyph unicode="e" horiz-adv-x="1171" d="M270 354q0 254 174 439.5t441 185.5q129 0 211 -61.5t82 -159.5q0 -100 -74 -183q-131 -139 -555 -139h-17q-12 0 -34.5 -1t-32.5 -1q-6 -41 -6 -82q0 -209 237 -209q104 0 181 17.5t108 37t53.5 37t32.5 17.5q18 0 55 -41t37 -55q0 -10 -16.5 -30t-55 -44.5t-93 -45 t-141.5 -34.5t-189 -14q-113 0 -195 32.5t-124 90t-60.5 116.5t-18.5 127zM506 590h16q238 0 361 29.5t123 113.5q0 41 -40 65.5t-106 24.5q-254 0 -354 -233z" />
<glyph unicode="f" horiz-adv-x="780" d="M-45 -266q0 53 36 90t87 37q82 0 82 -80q0 -10 -4 -35q6 0 18 -1t16 -1h5q33 0 55 23.5t48 106.5t50.5 202t65.5 348q55 311 67 389h-184q-57 0 -57 43q0 8 4 24.5t4 18.5q2 4 4 13.5t3 12.5t4 10t5 9t5 7t7.5 7.5t10.5 4.5t13 3t15 1h195v2q31 213 65.5 292.5 t104.5 124.5q68 47 154 48q53 0 101 -11.5t90 -45.5t42 -87q0 -49 -34 -88t-87 -39q-82 0 -82 80q0 23 4 35l-112 2q-27 -68 -68 -313h225q55 0 56 -43q0 -41 -21 -82q-14 -29 -57 -29h-232q-100 -598 -145 -797q-47 -197 -100 -272q-100 -154 -236 -154q-84 0 -153.5 35 t-69.5 109z" />
<glyph unicode="g" horiz-adv-x="1171" d="M156 -285q0 53 35.5 90t84.5 37q86 0 84 -94q82 -4 127 -4q96 0 160 14.5t92.5 43t40 52t19.5 58.5q2 8 2 12l18 75q12 50 21 75q-131 -74 -250 -74q-141 0 -233.5 84t-92.5 248q0 109 39 221.5t107.5 207.5t177 156.5t233.5 61.5q135 0 228 -84q41 51 92 51 q31 0 52 -19.5t21 -49.5q0 -20 -6 -39l-229 -924l-25 -86q-45 -111 -176 -174.5t-305 -63.5h-47q-270 0 -270 125zM449 328q0 -92 48 -133t119 -41q94 0 174 64.5t125 170.5q12 31 33 115t21 125q0 82 -45 138t-131 56q-78 0 -140.5 -42t-99.5 -101t-61.5 -131t-33.5 -127 t-9 -94z" />
<glyph unicode="h" d="M188 63q0 2 13 70l278 1108q-18 2 -45.5 3t-42 2t-30 4t-21.5 12.5t-6 25.5q0 14 9 50t22 48q8 8 71 17q186 18 209 18q45 0 45 -41q0 -16 -23 -110l-59 -229q-35 -134 -51 -207q158 145 336 145q133 0 207 -58.5t74 -175.5q0 -109 -76 -321.5t-76 -222.5q0 -57 53 -58 q45 0 87 45t67 115q10 29 21.5 36t35.5 7h49q63 0 64 -29q0 -39 -40 -112.5t-126 -144t-186 -70.5q-90 0 -149.5 50t-59.5 132q0 41 76.5 248t76.5 291q0 113 -129 112q-281 0 -432 -501q-14 -45 -27.5 -105.5t-22.5 -94.5t-23.5 -68t-37 -49t-55.5 -15q-31 0 -53.5 20 t-22.5 53z" />
<glyph unicode="i" horiz-adv-x="780" d="M571 1305q0 43 36 79.5t83 36.5q37 0 60.5 -22.5t23.5 -59.5q0 -43 -37 -79.5t-84 -36.5q-35 0 -58.5 22.5t-23.5 59.5zM141 651q0 25 24.5 76t66.5 108.5t113 100.5t151 43q88 0 147 -51t59 -133v-15q0 -31 -103 -293t-103 -288q0 -25 16 -40.5t39 -15.5q49 0 92 50.5 t64 117.5q14 35 51 35h78q39 0 38 -29q0 -27 -24.5 -78t-66.5 -109t-113.5 -100t-149.5 -42q-88 0 -147.5 51t-59.5 133q0 45 25 102q180 479 182 494q0 23 -15.5 39t-39.5 16q-41 0 -81 -39t-62 -96q-4 -10 -9.5 -25.5t-7.5 -19.5t-8 -11t-14.5 -8t-22.5 -1h-80 q-39 -1 -39 28z" />
<glyph unicode="j" horiz-adv-x="780" d="M-70 -283q0 53 38 89t85 36q82 0 82 -86v-12h2q49 0 74 4q172 27 205 191l190 761q8 33 8 52q0 35 -23.5 53t-58.5 18q-49 0 -110.5 -37.5t-104.5 -123.5q-12 -27 -22 -33t-33 -6h-72q-45 0 -45 24q0 23 31 75t82 110.5t135 102.5t172 44q98 0 165 -56.5t67 -146.5 q0 -33 -19 -100l-188 -752q0 -2 -3 -15l-5 -23q-2 -9 -8.5 -26.5t-13.5 -30.5l-18 -33q-11 -19 -24.5 -35.5t-33 -36t-42.5 -35.5q-131 -98 -303 -99q-94 0 -151.5 35t-57.5 92zM670 1305q0 43 35.5 79.5t82.5 36.5q37 0 60.5 -22.5t23.5 -59.5q0 -43 -36.5 -79.5 t-83.5 -36.5q-37 0 -59.5 23.5t-22.5 58.5z" />
<glyph unicode="k" horiz-adv-x="1171" d="M188 63q0 18 7 41l284 1137q-49 4 -69 4h-11q-66 0 -65 43q0 12 9 50t24 51q10 8 79.5 16t135.5 12l63 4q45 0 45 -41q0 -8 -4 -28l-186 -742q63 29 143 95.5t140.5 124t141.5 103.5t156 46q74 0 111 -51t37 -133q0 -113 -40 -156t-91 -43q-35 0 -59.5 21.5t-24.5 56.5 q0 39 26.5 73.5t26.5 49.5q0 33 -45 24q-37 -6 -70.5 -20.5t-73.5 -43t-67 -50.5l-80 -71l-82 -73q100 -23 179 -82t79 -164q0 -23 -5 -51t-5 -43q0 -35 24.5 -57.5t57.5 -22.5q41 0 69.5 42t44 92.5t21.5 56.5q10 12 78 12h25q51 0 51 -29q0 -33 -33 -106.5t-110.5 -148 t-174.5 -74.5q-94 0 -163.5 57t-69.5 158q0 12 5 44t5 48q0 123 -270 137h-2q-86 -365 -103 -393q-31 -49 -88 -49q-31 0 -53.5 20t-22.5 53z" />
<glyph unicode="l" horiz-adv-x="649" d="M223 190q0 35 19 109l235 942q-20 2 -47 3t-41 2t-28.5 4t-20.5 12.5t-6 25.5q0 4 4 33q6 25 11 37t8 21.5t13.5 12.5t13.5 5t22.5 3t29.5 3q186 18 207 18q47 0 47 -41l-12 -61l-268 -1067q-6 -37 -4 -45q2 -27 23.5 -45.5t47.5 -18.5q35 0 57.5 44t36 94.5t23.5 56.5 q10 8 39 8h67q43 0 43 -29q0 -31 -28.5 -103.5t-100 -148t-163.5 -75.5q-90 0 -159 53t-69 147z" />
<glyph unicode="m" horiz-adv-x="2086" d="M141 651q0 33 31 105.5t103.5 147.5t160.5 75q76 0 142.5 -42t83.5 -128q170 170 362 170q33 0 64.5 -5t81 -20.5t85 -57.5t45.5 -103q88 90 173.5 138t201.5 48q133 0 208 -58.5t75 -175.5q0 -100 -77 -318t-77 -228q0 -25 16.5 -40.5t39.5 -15.5q47 0 90 48.5t67 119.5 q10 35 49 35h62q55 0 55 -31q0 -33 -38 -106.5t-125 -147t-191 -73.5q-88 0 -147.5 51t-59.5 133q0 39 77 250t77 291q0 111 -131 110q-106 0 -193.5 -70.5t-139.5 -180t-86 -214t-56.5 -198.5t-28.5 -109q-31 -61 -97 -61q-31 0 -52 19.5t-21 49.5q0 16 8 50l131 526 q12 43 12 76q0 113 -129 112q-106 0 -193 -69.5t-139.5 -178t-86 -211t-56 -198.5t-29.5 -111q-29 -66 -98 -65q-31 0 -52.5 19.5t-21.5 49.5q0 4 13 66l145 582q8 29 8 45q0 33 -22.5 52t-48.5 19q-35 0 -58.5 -40t-36 -90t-18.5 -58q-10 -12 -37 -12h-67q-54 -1 -54 28z " />
<glyph unicode="n" horiz-adv-x="1433" d="M141 651.5q0 28.5 29 91.5q98 236 264 236q76 0 142.5 -42t85.5 -128q164 170 360 170q119 0 200 -53.5t81 -180.5q0 -106 -76 -321t-76 -225q0 -25 15.5 -40.5t39.5 -15.5q45 0 88 46.5t68 119.5q8 27 20.5 32t59.5 5h26q59 0 60 -29q0 -25 -24.5 -76t-65.5 -108 t-112 -100t-150 -43q-90 0 -149.5 50t-59.5 132q0 37 77.5 248t77.5 291q0 113 -131 112q-106 0 -193 -70.5t-139.5 -180t-87 -213t-56 -198.5t-28.5 -108q-29 -63 -96 -63q-31 0 -52.5 19.5t-21.5 49.5q0 23 7 43l151 609q6 23 6 41q0 33 -22.5 52t-48.5 19q-49 0 -81 -96 t-36 -98q-8 -6 -39 -6h-61q-52 0 -52 28.5z" />
<glyph unicode="o" d="M266 342q0 104 40 213t114 205t197.5 157.5t273.5 61.5q176 0 280.5 -93t104.5 -261q0 -150 -69.5 -292.5t-216 -243.5t-337.5 -101q-178 0 -282.5 94t-104.5 260zM455 344q0 -201 227 -201q115 0 200 53.5t127 135.5t61.5 155.5t19.5 135.5q0 203 -228 202 q-96 0 -172 -38.5t-119 -94t-70.5 -125t-36.5 -124t-9 -99.5z" />
<glyph unicode="p" d="M92 -354q0 4 3 23.5t13.5 45t22.5 33.5t41 8h66l24 103l213 846q8 33 8 49q0 29 -23.5 49t-49.5 20q-35 0 -57.5 -43t-36 -92t-21.5 -57q-10 -8 -37 -8h-72q-43 0 -43 26q0 31 29 103.5t100.5 149.5t163.5 77q141 0 209 -117q150 117 311 117q139 0 230.5 -85t91.5 -251 q0 -150 -64.5 -297t-196.5 -252.5t-298 -105.5q-125 0 -225 80l-76 -312h80q66 0 65 -43q0 -12 -8 -43.5t-12 -38.5q-12 -29 -60 -28h-329q-62 0 -62 43zM573 336q0 -102 53.5 -147.5t118.5 -45.5q82 0 146.5 44t101.5 106.5t60.5 137.5t32 128t8.5 88q0 96 -48.5 136 t-117.5 40q-102 0 -193.5 -83t-124.5 -210q-2 -6 -9 -32.5t-12 -48t-10.5 -53t-5.5 -60.5z" />
<glyph unicode="q" horiz-adv-x="1171" d="M262 324q0 106 38 218.5t105.5 211t178 162t239.5 63.5q139 0 230 -90h2q33 39 78 62.5t63 23.5q37 0 37 -37q0 -16 -16 -74l-277 -1108h82q63 0 63 -45q0 -4 -3 -23.5t-13 -45t-22 -33.5q-10 -6 -39 -6h-373q-59 0 -60 43q0 18 10.5 55t26.5 47q12 8 52 8h96l76 305 q-121 -74 -250 -73q-139 0 -231.5 85t-92.5 251zM449 319q0 -96 48 -136t117 -40q74 0 136.5 39t101.5 95.5t66.5 124t39 124t11.5 97.5q0 78 -39 139t-137 61q-78 0 -140.5 -42t-99.5 -102.5t-61.5 -133t-33.5 -129t-9 -97.5z" />
<glyph unicode="r" horiz-adv-x="1073" d="M141 651q0 18 18.5 67.5t52.5 110t94.5 105.5t129.5 45q57 0 122 -29.5t93 -105.5q141 135 299 135q106 0 172 -63.5t66 -159.5q0 -82 -40 -121t-87 -39q-37 0 -60.5 21.5t-23.5 56.5q0 27 15.5 55.5t15.5 38.5q0 18 -25 36.5t-61 18.5q-178 0 -306 -317 q-39 -98 -67.5 -210t-39.5 -169t-39 -97t-79 -40q-31 0 -52.5 19.5t-21.5 49.5q0 18 9 52l139 559q16 61 16 84q0 31 -22.5 50t-48.5 19q-33 0 -55.5 -39t-35 -89t-18.5 -58q-12 -14 -63 -14h-48q-49 -1 -49 28z" />
<glyph unicode="s" horiz-adv-x="1040" d="M180 197q0 70 39 107.5t86 37.5q35 0 59.5 -22.5t24.5 -57.5q0 -37 -29 -76v-2q57 -41 185 -41q145 0 208.5 50.5t63.5 111.5q0 51 -51 77t-140 41t-112 23q-61 23 -107.5 76t-46.5 129q0 41 17.5 90.5t56.5 106.5t121 94t195 37q133 0 210.5 -50t77.5 -134 q0 -59 -34.5 -97.5t-83.5 -38.5q-35 0 -57.5 21.5t-22.5 54.5q0 27 18 64q-49 27 -135 26q-88 0 -138 -41t-50 -90q0 -45 39.5 -66.5t121.5 -34.5t115 -26q72 -27 125 -82t53 -139q0 -82 -50 -166t-128 -127q-113 -66 -287 -65q-158 0 -251 57.5t-93 151.5z" />
<glyph unicode="t" horiz-adv-x="843" d="M178 856q0 8 4 24.5t4 18.5q14 51 31 59q14 8 39 9h219q4 20 45 184t49 180q31 61 95 62q31 0 53 -19.5t22 -50.5l-86 -356h201q57 0 57 -43q0 -14 -8 -43t-12 -40.5t-17.5 -19.5t-37.5 -8h-222l-135 -547q-10 -41 -10 -51q0 -29 21.5 -50.5t60.5 -21.5q63 0 122.5 47.5 t94.5 116.5q12 27 23.5 33t35.5 6h56q57 0 57 -27q0 -23 -30.5 -74.5t-82 -110t-135.5 -102.5t-172 -44q-98 0 -164.5 57t-66.5 148q0 29 24 130l65 258l58 232h-200q-58 0 -58 43z" />
<glyph unicode="u" horiz-adv-x="1368" d="M141 649q0 37 39 111t126 146.5t192 72.5q88 0 147.5 -51t59.5 -133q0 -39 -72 -227.5t-72 -280.5q0 -143 148 -144q92 0 175 92.5t124 253.5q104 406 108 414q29 63 94 64q33 0 54.5 -19.5t21.5 -52.5q0 -10 -10 -51l-146 -584q-8 -33 -8 -45q0 -31 22.5 -51.5 t51.5 -20.5q35 0 57.5 43t36 93.5t21.5 58.5q12 8 41 8h63q49 0 49 -31q0 -35 -30.5 -107.5t-103.5 -146t-159 -73.5q-150 0 -213 121q-139 -121 -280 -121q-123 0 -211 61.5t-88 206.5q0 115 70.5 306.5t70.5 205.5q0 25 -15.5 40t-37.5 15q-47 0 -89 -45t-67 -116 q-8 -27 -18 -33t-35 -6h-55q-62 -1 -62 26z" />
<glyph unicode="v" horiz-adv-x="1171" d="M141 651q0 25 24.5 76t65.5 108.5t113 100.5t152 43q88 0 147 -51t59 -133q0 -43 -70.5 -226.5t-70.5 -271.5q0 -139 152 -154h20q98 0 161.5 97.5t115.5 302.5q33 125 32 182q0 47 -18 86t-18 57q0 43 35.5 77t76.5 34q47 0 76 -47t29 -127q0 -59 -17.5 -154.5 t-59.5 -212t-99.5 -216t-146.5 -167t-193 -67.5q-84 0 -153 21.5t-121 86t-52 168.5q0 113 69.5 301.5t69.5 200.5q0 27 -15.5 42t-39.5 15q-20 0 -43 -9t-55.5 -49t-57.5 -106q-8 -23 -18 -29.5t-37 -6.5h-59q-54 -1 -54 28z" />
<glyph unicode="w" horiz-adv-x="1695" d="M141 651q0 25 24.5 76t67.5 108.5t114 100.5t151 43q88 0 147.5 -51t59.5 -133q0 -41 -71 -222.5t-71 -269.5q0 -160 191 -160q37 0 65.5 14.5t53 52.5t42 73.5t39 110.5t34.5 128l38 159l43 175q29 111 111 111q31 0 52 -20.5t21 -51.5v-6q0 -4 -112 -461 q-23 -98 -23 -131q0 -84 51.5 -119t122.5 -35q59 0 107.5 50.5t91.5 191.5q76 246 76 342q0 47 -18.5 85t-18.5 56q0 45 38 78t77 33q47 0 74.5 -47t27.5 -129q0 -90 -45 -260t-100 -287q-129 -268 -336 -268t-291 125q-113 -125 -244 -125q-150 0 -249 64.5t-99 217.5 q0 109 68.5 296.5t68.5 201.5q0 25 -15.5 40t-37.5 15q-96 0 -158 -168q-8 -20 -17 -26t-32 -6h-67q-52 -1 -52 28z" />
<glyph unicode="x" horiz-adv-x="1175" d="M141 649q0 23 17.5 61t53.5 85t84 88t118.5 68.5t148.5 27.5q147 0 230 -88q123 88 233 88q102 0 166.5 -61.5t64.5 -159.5q0 -86 -38.5 -124t-88.5 -38q-35 0 -58 22.5t-23 55.5q0 45 36 88q-27 61 -86 61q-86 0 -131 -71q-12 -23 -68.5 -245t-56.5 -261 q0 -102 129 -103q74 0 135.5 44t88.5 110q16 37 24 43t51 6h46q53 0 53 -28.5t-29 -80t-78 -108.5t-134 -99t-181 -42q-141 0 -230 88h-2q-106 -88 -231 -88q-100 0 -165.5 62.5t-65.5 160.5q0 84 38.5 122t88.5 38q35 0 59.5 -21.5t24.5 -56.5q0 -45 -39 -88q27 -61 88 -62 q80 0 127 70q18 29 72.5 250t54.5 260q0 100 -129 100q-72 0 -133.5 -44t-90.5 -107q-16 -37 -23 -43t-38 -6h-51q-62 -1 -62 26z" />
<glyph unicode="y" horiz-adv-x="1236" d="M141 651q0 27 26 78t67.5 108.5t112.5 99.5t147 42q92 0 151.5 -51t59.5 -133q0 -43 -72 -230.5t-72 -277.5q0 -143 148 -144q59 0 112 35t88 88t54.5 95t31.5 79l58 231q55 222 65 238q33 57 92 58q31 0 53.5 -20.5t22.5 -51.5q0 -12 -4 -33l-6 -20l-199 -795 q-10 -41 -16 -63.5t-29.5 -75.5t-53.5 -91t-85 -85t-125 -82q-125 -59 -248 -60q-115 0 -184.5 48.5t-69.5 128.5q0 57 36 95t87 38q37 0 60.5 -21.5t23.5 -56.5q0 -27 -18 -64q39 -14 88 -14q111 0 206 68.5t130 167.5q8 25 22 81q-115 -74 -223 -73q-123 0 -211 61.5 t-88 206.5q0 115 70.5 306.5t70.5 205.5q0 25 -15.5 40t-37.5 15q-47 0 -90 -48t-68 -120q-8 -20 -17 -26t-32 -6h-67q-52 -1 -52 28z" />
<glyph unicode="z" horiz-adv-x="1040" d="M117 12q0 14 26 56q76 115 173.5 212t390.5 357l102 100q-2 0 -85 32t-128 32q-53 0 -86 -20.5t-49.5 -44t-24.5 -25.5q-6 -2 -43 -2h-37q-61 0 -61 26q0 66 98.5 155t229.5 89q66 0 158.5 -51t125.5 -51q23 0 38.5 25.5t34.5 51t54 25.5h56q57 0 57 -25q0 -61 -199 -264 q-80 -82 -383 -350l-98 -94q51 -6 143 -43t140 -37q74 0 135 43t84 102q14 35 53 35h53q61 0 62 -29q0 -43 -47.5 -117.5t-148.5 -143t-220 -68.5q-68 0 -160 52t-139 52q-41 0 -73 -19.5t-55.5 -47t-27.5 -29.5q-10 -8 -37 -8h-69q-43 -1 -43 24z" />
<glyph unicode="{" d="M299 465l18 86q4 12 8.5 20.5t12.5 12.5t11 5t16 1h16q129 8 229.5 54t139.5 128q10 23 71.5 272.5t77.5 284.5q47 102 176 154.5t303 52.5h74q41 0 41 -31q0 -8 -11.5 -54t-19.5 -56q-10 -12 -94 -12.5t-176 -16.5t-123 -70q-12 -20 -72.5 -267t-74.5 -281 q-74 -164 -318 -238q197 -68 197 -231q0 -43 -63.5 -289t-63.5 -262q0 -86 223 -86q14 0 35.5 1t30.5 1q57 0 57 -31q0 -10 -2 -16q-16 -76 -26.5 -92.5t-45.5 -16.5h-53q-227 0 -314 63.5t-87 147.5q0 37 64.5 287t64.5 282q0 59 -61.5 107.5t-203.5 58.5q-57 0 -57 31z " />
<glyph unicode="|" horiz-adv-x="780" d="M215 -449l12 68l457 1823q0 2 3 12t3 13t3 12.5t5 12.5t5.5 11t6.5 10.5t8 7.5t10 7t12.5 4t15.5 2q25 0 42 -17.5t17 -43.5q0 -10 -4 -30t-4 -24l-467 -1861q-14 -68 -66 -68q-25 0 -42 17t-17 44z" />
<glyph unicode="}" d="M61 -483q0 10 11.5 56t19.5 56q10 12 94 12.5t176.5 16.5t124.5 70q12 23 70.5 264t77.5 284q74 164 315 238q-195 68 -194 231q0 43 63.5 289t63.5 262q0 49 -77 67.5t-165 18.5t-96 6.5t-8 24.5q0 20 20 88q6 23 16.5 29t36.5 6h54q227 0 313 -63.5t86 -149.5 q0 -41 -64.5 -288t-64.5 -279q0 -76 78 -118t188 -48q57 0 57 -31q0 -16 -20 -86q-4 -16 -9 -24.5t-17.5 -11.5t-24.5 -3t-39 -2t-53 -6q-266 -45 -308 -236v-4q-119 -471 -129 -491q-47 -102 -175 -154.5t-302 -52.5h-78q-41 0 -41 29z" />
<glyph unicode="~" horiz-adv-x="1564" d="M557 1192q0 25 105 108q150 121 270 121q80 0 189.5 -63.5t166.5 -63.5q55 0 113.5 31t98.5 62.5t54 31.5q23 0 50.5 -33.5t27.5 -54.5q0 -25 -100 -106q-156 -123 -275 -123q-78 0 -187 63.5t-167 63.5q-76 0 -166 -62.5t-100 -62.5q-23 0 -51.5 34t-28.5 54z" />
<glyph unicode="&#xa1;" horiz-adv-x="864" d="M225 -322q0 18 9.5 52t31 100t29.5 94l184 611q14 45 22.5 55t37.5 10h69q47 0 47 -29q0 -6 -2 -15t-4 -22.5t-4 -23.5l-153 -778q-31 -152 -160 -152q-45 0 -76 27.5t-31 70.5zM524 874q0 57 46 103.5t108 46.5q45 0 75.5 -29.5t30.5 -76.5q0 -57 -46 -103.5t-105 -46.5 q-45 0 -77 29.5t-32 76.5z" />
<glyph unicode="&#xa2;" d="M248 362q0 135 66.5 261.5t170.5 207.5q33 27 67 47.5t69 34.5l61 25q27 10 61 18l53 13q17 4 49 8t38 6q31 137 45 162.5t57 25.5h27q61 0 61 -43q0 -23 -35 -145q203 -4 269 -49q47 -31 47 -86q0 -51 -36 -88t-85 -37q-35 0 -60.5 20.5t-23.5 69.5l-152 6l-166 -663 q139 10 228 116q4 6 12 16.5t10 13.5t8.5 8t10.5 6t12 2t18 1h66q47 0 47 -24q0 -45 -103.5 -141.5t-228.5 -135.5q-51 -16 -120 -26q-31 -139 -45.5 -165t-53.5 -26h-30q-61 0 -62 43q0 25 35 148q-113 14 -193 52t-119.5 93.5t-57 109.5t-17.5 115zM442 399.5 q0 -53.5 20.5 -95.5t45 -65.5t65.5 -41t57.5 -22.5t47.5 -11l162 649q-106 -12 -187.5 -60t-124.5 -111.5t-64.5 -126t-21.5 -116z" />
<glyph unicode="&#xa3;" horiz-adv-x="1896" d="M221 100q0 70 76 127.5t246 57.5q55 0 137 -13l27 58l77 305h-118h-33q-10 0 -19.5 3t-12.5 7t-3 14q0 16 18 93q10 35 48 36h159q68 289 92 357q37 98 100.5 168.5t134.5 106.5t133.5 51.5t119.5 15.5q143 0 227 -90t84 -228q0 -113 -40 -157.5t-93 -44.5 q-35 0 -59.5 22.5t-24.5 57t23.5 66.5t23.5 50q0 55 -40 112.5t-128 57.5q-70 0 -124 -24.5t-85.5 -57t-55.5 -80t-33 -79t-17 -66.5q-2 -6 -2 -10l-58 -228h218q33 -2 32 -30q0 -20 -18 -86q-8 -25 -17.5 -31t-33.5 -6h-219v-2q-37 -166 -67 -267.5t-42 -119.5l-12 -19 l80 -26q82 -25 159.5 -43.5t132.5 -18.5q129 0 185 131q12 37 49 37h78q41 0 41 -28q0 -25 -33 -84q-57 -94 -165.5 -150.5t-229.5 -56.5q-109 0 -262.5 48t-155.5 48q-8 0 -49 -23.5t-115 -48t-162 -24.5q-92 0 -133 34.5t-41 77.5z" />
<glyph unicode="&#xa4;" horiz-adv-x="1792" d="M160 -43q0 10 3 18.5t14 20.5l23 23q11 11 38 33l51 41l70 55l90 71q-53 117 -54 236q0 125 58.5 290.5t201.5 301.5v2q-29 33 -135 180q-29 33 -28 59q0 25 18 42.5t43 17.5q8 0 16.5 -2.5t16.5 -9.5t14 -11t15 -16l14 -18q4 -5 14 -21.5t14 -20.5q47 -57 95 -125 q197 131 440.5 131t384.5 -131h2l248 199q33 25 57 25q20 0 39 -17.5t19 -44t-20.5 -45t-170.5 -137.5l-98 -80q53 -106 53 -233q0 -78 -17.5 -165t-80 -210t-160.5 -217v-4q20 -25 82.5 -109t68.5 -94q10 -14 11 -35q0 -25 -17.5 -42t-42.5 -17q-33 0 -57 32 q-47 53 -141 191q-215 -133 -445 -133q-240 0 -381 133h-4q-68 -59 -254 -205q-31 -18 -49 -18q-25 0 -42 16t-17 43zM520 453q0 -96 35 -167t95.5 -107t123 -51t133.5 -15q154 0 284 61.5t214 158.5t131 217t47 241q0 184 -114.5 263t-274.5 79q-201 0 -358.5 -103.5 t-236.5 -257t-79 -319.5z" />
<glyph unicode="&#xa5;" horiz-adv-x="1859" d="M221 434q0 78 101 78h641q10 47 10 53q0 8 -135 277h-392q-55 0 -75 18q-29 25 -29 60q0 27 17.5 48t43.5 25q8 2 52 2h305l-137 273h-127q-61 0 -62 45q0 39 21 80q14 31 59 30h369q63 0 63 -45q0 -16 -10 -53t-24.5 -47t-53.5 -10l139 -273h346q8 0 13.5 1t12.5 2 t13.5 6.5t14.5 10.5t20 17l26 26l36 35l45 45l58 58l73 72q-47 4 -47 45q0 10 4 26.5t4 22.5q10 37 23.5 49t48.5 12h346q61 0 61 -45q0 -14 -8 -47t-16 -43q-16 -20 -58 -20h-69q-31 0 -45.5 -2t-29 -7.5t-35.5 -26.5l-45 -45l-78 -79l-114 -113h279q100 0 100 -75 q0 -43 -41 -68q-18 -10 -61 -10h-404q-25 0 -54.5 -27t-213.5 -211q-27 -27 -34 -40t-17 -52h604q100 0 100 -78q0 -76 -100 -76h-643l-49 -204h80q66 0 65 -43q0 -6 -3 -24.5t-12 -44.5t-21.5 -34t-41.5 -8h-382q-59 0 -60 45q8 82 37 100q12 8 51 9h98l50 204h-596 q-39 0 -47 2q-60 15 -60 74zM1075 842l49 -99q47 41 101 99h-150z" />
<glyph unicode="&#xa6;" horiz-adv-x="518" d="M84 -449q0 12 14 72l156 621q20 86 70 86q23 0 41 -16.5t18 -45.5q0 -18 -14 -71l-156 -625q-20 -84 -70 -84q-23 0 -41 17t-18 46zM385 756q0 8 23 102l147 590q6 27 10 40t19.5 29.5t40 16.5t43 -17.5t18.5 -43.5q0 -6 -10 -48l-160 -639q0 -4 -2 -12t-3 -13t-4 -13 l-5 -14q-2 -5 -6 -12t-9.5 -11l-11.5 -8.5t-13 -6.5t-18 -2q-23 0 -41 17.5t-18 44.5z" />
<glyph unicode="&#xa7;" horiz-adv-x="1171" d="M219 -178q0 74 35 108.5t78 34.5q33 0 53.5 -18.5t20.5 -50.5q0 -14 -6.5 -37t-6.5 -31q0 -29 34 -56.5t91 -27.5q109 0 199 72.5t90 156.5q0 25 -12.5 47.5t-26.5 37t-43 30.5l-43 23.5t-47 19.5t-37 14q-37 14 -74 36t-81 58.5t-70.5 92t-26.5 121.5q0 102 65.5 199.5 t166.5 156.5q-90 94 -91 207q0 154 137.5 286t313.5 132q113 0 189.5 -64.5t76.5 -167.5q0 -72 -33.5 -108.5t-76.5 -36.5q-33 0 -53.5 20.5t-20.5 50.5q0 14 6 37t6 31q0 29 -33.5 56.5t-93.5 27.5q-109 0 -198 -72.5t-89 -156.5q0 -25 12.5 -47.5t27 -37t43 -30.5 t43 -23.5t47 -19.5t36.5 -14q37 -14 73 -36t80 -58.5t70.5 -92t26.5 -121.5q0 -104 -65.5 -203.5t-163.5 -152.5q90 -96 90 -207q0 -154 -137 -286t-314 -132q-115 0 -191.5 65t-76.5 167zM477 487q0 -53 57.5 -96t107.5 -60.5t65 -17.5q61 0 151 66.5t90 157.5q0 53 -57 96 t-107.5 60.5t-64.5 17.5q-63 0 -152.5 -67t-89.5 -157z" />
<glyph unicode="&#xa8;" d="M614 1272q0 55 46.5 102t105.5 47q49 0 78.5 -30.5t29.5 -75.5q0 -57 -46 -103.5t-105 -46.5q-47 0 -78 31t-31 76zM1073 1272q0 57 46 103t106 46q45 0 76.5 -29.5t31.5 -76.5q0 -55 -45 -102.5t-108 -47.5q-45 0 -76 30t-31 77z" />
<glyph unicode="&#xa9;" horiz-adv-x="2742" d="M825 381q0 86 30 173t94.5 171t153.5 148.5t219 104.5t282 40q219 0 342 -117h2q55 55 85.5 82t41 31t24.5 4q39 0 39 -29q0 -10 -43 -181t-45 -173q-8 -35 -51 -35h-68q-33 0 -43 8t-10 41q0 86 -58.5 150.5t-187.5 64.5q-164 0 -288.5 -45t-191.5 -116.5t-98.5 -147.5 t-31.5 -152q0 -270 420 -270q125 0 227.5 55.5t138.5 149.5q10 27 18.5 34t37.5 7h57q55 0 55 -29q0 -14 -8 -37q-55 -152 -228 -244t-384 -92q-143 0 -258 38t-194 131.5t-79 234.5zM287 256q0 168 54 344t172 349t285 307.5t412.5 218.5t534.5 84q205 0 377 -48.5 t304 -142.5t206.5 -247.5t74.5 -352.5q0 -139 -39.5 -285.5t-115.5 -294t-200 -276.5t-280.5 -229.5t-369.5 -159t-455 -58.5q-203 0 -375 48.5t-304 142.5t-206.5 247.5t-74.5 352.5zM410 254q0 -332 230 -498t609 -166q258 0 481.5 74t376 193.5t263 274.5t162 317.5 t51.5 320.5q0 332 -229.5 498t-608.5 166q-258 0 -481.5 -73t-377 -193.5t-264 -275.5t-161.5 -317.5t-51 -320.5z" />
<glyph unicode="&#xaa;" horiz-adv-x="1171" d="M66 567q0 29 19 50.5t48 25.5q16 2 49 2h781q51 0 73 -18q31 -20 31 -60q0 -78 -96 -78h-815q-37 0 -59.5 17.5t-26.5 33t-4 27.5zM242 1032q0 82 29.5 169t85 166t147.5 129t203 50q96 0 182 -57q37 31 74 31q27 0 50 -18.5t23 -53.5q0 -20 -54 -231t-54 -234 q0 -31 22.5 -50.5t50.5 -19.5q49 0 79 93.5t36 97.5q10 10 39 10h62q51 0 51 -31q0 -33 -30 -104.5t-102.5 -146t-160.5 -74.5q-123 0 -195 92h-2q-113 -92 -258 -92q-111 0 -194.5 64.5t-83.5 209.5zM428 1030q0 -119 119 -119q74 0 131 48.5t88 115.5q10 25 25.5 88.5 t15.5 89.5q0 53 -29.5 96.5t-99.5 43.5q-74 0 -127 -46.5t-77.5 -114t-35 -118.5t-10.5 -84z" />
<glyph unicode="&#xab;" horiz-adv-x="1433" d="M449 483q0 6 1 10.5t6 9.5t12 10l21 15l29 21l41 30l53 39q190 141 387 322q33 29 66 29h55q45 0 45 -25q0 -8 -5 -15t-19 -22l-30 -28l-48 -44l-66 -61q-203 -180 -364 -293q111 -135 206 -281.5t97 -174.5q0 -25 -45 -25h-57q-14 0 -22.5 2t-14.5 4t-14 13l-14 23 l-24 38l-32 53q-66 100 -134 184l-100 120q-30 36 -30 46zM848 483q0 16 57 60q33 23 53 39l154 123t97 86l54 50q24 22 37 27.5t33 5.5h56q47 0 47 -20t-37 -51q-205 -199 -381 -322q92 -115 162.5 -227.5t70.5 -137t-45 -24.5h-53h-18q-6 0 -13.5 3t-10.5 6t-10 12.5 t-11.5 17.5l-16.5 29l-22 37q-53 88 -107 155l-75 93q-21 26 -21 38z" />
<glyph unicode="&#xac;" horiz-adv-x="1695" d="M379 739q0 49 49 60q12 2 37 2h1139q80 0 79 -66q0 -10 -129 -530l-2 -12q-4 -10 -8 -18.5t-11 -19t-19.5 -16.5t-26.5 -6q-25 0 -42.5 19.5t-17.5 37.5q0 10 117 488h-1083q-43 0 -62.5 19t-19.5 42z" />
<glyph unicode="&#xad;" horiz-adv-x="518" d="M199 440q0 8 10 51.5t16 55.5q16 25 54 24h509q57 0 58 -45q0 -10 -15 -63q-4 -20 -6 -27.5t-9 -20t-19.5 -16.5t-32.5 -4h-506q-59 0 -59 45z" />
<glyph unicode="&#xae;" horiz-adv-x="2742" d="M735 45q8 82 37 100q12 8 51 9h97v2l172 686h-82q-66 0 -66 45q0 43 23 82q12 27 57 26h520q274 0 386 -73.5t112 -167.5q0 -80 -65.5 -153t-174.5 -116q53 -59 53 -127q0 -33 -17 -99t-17 -85q0 -41 90 -41q39 0 59.5 14.5t24.5 33t21.5 32.5t49.5 14h31q70 0 70 -41 q0 -51 -72 -130t-194 -79q-281 0 -281 168q0 43 19.5 106.5t19.5 84.5q0 49 -61.5 66.5t-198.5 17.5h-221l-68 -266h82q63 0 63 -43q0 -6 -3 -24.5t-12 -44.5t-23.5 -34t-45.5 -8h-372q-64 0 -64 45zM1217 575h231q289 0 367 87q29 33 28 65q0 115 -319 115h-242zM287 256 q0 168 54 344t172 349t285 307.5t412.5 218.5t534.5 84q205 0 377 -48.5t304 -142.5t206.5 -247.5t74.5 -352.5q0 -139 -39.5 -285.5t-115.5 -294t-200 -276.5t-280.5 -229.5t-369.5 -159t-455 -58.5q-203 0 -375 48.5t-304 142.5t-206.5 247.5t-74.5 352.5zM410 254 q0 -332 230 -498t609 -166q258 0 481.5 74t376 193.5t263 274.5t162 317.5t51.5 320.5q0 332 -229.5 498t-608.5 166q-258 0 -481.5 -73t-377 -193.5t-264 -275.5t-161.5 -317.5t-51 -320.5z" />
<glyph unicode="&#xaf;" d="M557 1331q0 12 9 46t16 46q14 23 55 23h727q59 0 59 -45q0 -4 -3 -24.5t-13 -48.5t-25 -36q-14 -6 -32 -6h-738q-55 0 -55 45z" />
<glyph unicode="&#xb0;" horiz-adv-x="909" d="M475 1104q0 123 89 220t229 97q98 0 158.5 -54t60.5 -148q0 -123 -89 -220.5t-229 -97.5q-98 0 -158.5 55.5t-60.5 147.5zM600 1104q0 -80 94 -80q90 0 142.5 63.5t52.5 131.5q0 80 -94 79q-90 0 -142.5 -62t-52.5 -132z" />
<glyph unicode="&#xb1;" horiz-adv-x="1957" d="M190 -16q0 57 62 61q16 2 49 2h625l149 598h-612q-33 0 -47 4q-45 14 -45 59.5t45 57.5q16 4 51 4h639l17 71l51 199l92 371q18 80 69 80q20 0 40 -15.5t20 -45.5q0 -18 -9 -52l-153 -608h614q31 0 47 -4q43 -14 43 -57q0 -63 -82 -64h-653l-149 -598h622q82 0 82 -63 q0 -59 -82 -62h-1403q-82 1 -82 62z" />
<glyph unicode="&#xb2;" horiz-adv-x="1171" d="M360 729q0 68 95.5 186.5t242.5 174.5q33 12 96.5 30.5t110.5 33.5t97.5 35.5t78 47.5t27.5 57q0 92 -160 109q-14 -70 -69.5 -116t-118 -62.5t-127.5 -16.5q-100 0 -143.5 37t-43.5 84q0 59 47.5 112.5t124.5 80.5q109 37 281 37q223 0 311 -76t88 -174 q0 -57 -29.5 -105.5t-72.5 -79t-105.5 -59.5t-112.5 -44l-112 -33q-61 -17 -84 -25q-41 -14 -82 -37q16 -2 126 -21.5t182 -19.5q86 0 129 13t47 29.5t17 30t50 13.5h49q59 0 60 -29q0 -78 -119 -160t-272 -82q-76 0 -199 38t-160 38q-51 0 -75 -35q-6 -6 -13.5 -18 t-8.5 -13t-12.5 -5.5t-22.5 -4.5h-40h-26q-52 0 -52 29zM623 1364q16 -2 47 -2q70 0 110 18q-20 6 -35 21q-81 -6 -122 -37z" />
<glyph unicode="&#xb3;" horiz-adv-x="1171" d="M408 961q0 96 40.5 134t88.5 38q37 0 59 -23t22 -57q0 -29 -17 -58.5t-17 -44.5q0 -10 6 -24.5t21.5 -35t50 -33.5t83.5 -13q164 0 221.5 30.5t57.5 92.5q0 33 -15.5 53t-48 29.5t-60.5 11.5t-73 2h-73q-47 0 -47 31q0 18 18 86q10 39 53 39h64q8 0 23.5 -1t23.5 -1h12 q137 0 191 47q37 33 36 67q0 72 -186 72q-84 -164 -235 -164q-68 0 -121.5 26.5t-53.5 84.5q0 20 8.5 44.5t32 57.5t81 59.5t139.5 36.5q-4 16 -5 21q0 16 49.5 55t65.5 39q37 0 62 -104q193 0 268.5 -63.5t75.5 -143.5q0 -68 -44 -127.5t-110 -94.5q59 -72 59 -151 q0 -86 -51 -146.5t-135 -90t-162 -42t-157 -12.5q-143 0 -222 79t-79 194z" />
<glyph unicode="&#xb4;" d="M834 1231q0 10 3 17t11 14l12 9q4 3 14.5 9t12.5 6l128 64l98 51l65.5 33.5t49 21.5t29.5 6q33 0 54.5 -23.5t21.5 -54.5q0 -61 -80 -100q-340 -164 -356 -164q-23 0 -39 28t-20 56z" />
<glyph unicode="&#xb5;" d="M86 -350q0 16 8 49l287 1151l4 14q2 12 5 21l9 23q6 15 14.5 25.5t19.5 22t27.5 16.5t35.5 5q31 0 52 -18.5t21 -49.5q0 -27 -68.5 -289t-68.5 -321q0 -156 180 -156q113 0 206 106.5t132 262.5q96 383 103 397q33 57 94 58q31 0 52.5 -20.5t21.5 -51.5l-7 -43l-149 -596 q-6 -18 -6 -41q0 -31 21.5 -50.5t49.5 -19.5q35 0 56.5 38t35 88.5t19.5 58.5q12 16 49 16h47q61 0 62 -31q0 -35 -31 -107.5t-103.5 -145t-158.5 -72.5q-156 0 -215 131q-150 -131 -305 -131q-135 0 -228 53q-96 -385 -104 -401q-29 -61 -94 -62q-31 0 -52.5 19.5 t-21.5 50.5z" />
<glyph unicode="&#xb6;" horiz-adv-x="1564" d="M416 852q0 92 47 190.5t135 184.5t233.5 141t321.5 55h526q94 0 95 -61q0 -63 -80 -64h-129l-394 -1572h89q90 0 90 -62q0 -63 -80 -63h-645q-76 2 -76 63.5t80 61.5h129l180 727q-233 18 -377.5 121.5t-144.5 277.5zM885 -274h159l394 1572h-162z" />
<glyph unicode="&#xb7;" horiz-adv-x="694" d="M342 487q0 61 50 106.5t108 45.5q47 0 75.5 -29.5t28.5 -72.5q0 -57 -47 -104.5t-108 -47.5q-47 0 -77 29.5t-30 72.5z" />
<glyph unicode="&#xb8;" horiz-adv-x="1171" d="M209 -365q0 16 9 49t18 44q14 16 179 21t212 48q16 16 16 31q0 35 -74.5 45t-83.5 21q-8 8 -8 28.5t19 83.5q6 31 10 41t18.5 21.5t40.5 11.5h45q70 0 70 -45q0 -6 -4 -23q150 -43 149 -166q0 -27 -8 -54.5t-34.5 -69t-94 -73.5t-166.5 -46q-94 -12 -233 -13h-19 q-61 0 -61 45z" />
<glyph unicode="&#xb9;" horiz-adv-x="1171" d="M446 756q0 6 3.5 24.5t12.5 44t23 33.5q16 8 37 8h217l103 418q-119 -51 -228 -51q-70 0 -69 45q0 4 10 49q6 29 16.5 41t18.5 15t41 5.5t55 4.5q102 14 176 55t112 72.5t60 31.5q41 0 41 -41q0 -31 -31 -141l-124 -504h174q53 -4 53 -45q0 -14 -7 -45t-16 -41 q-12 -25 -55 -24h-551q-72 0 -72 45z" />
<glyph unicode="&#xba;" horiz-adv-x="1171" d="M66 567q0 29 19 50.5t48 25.5q14 2 47 2h719q47 0 68 -14q35 -23 34 -64q0 -78 -96 -78h-745q-39 0 -62.5 17.5t-27.5 32t-4 28.5zM246 1049q0 117 57 228.5t182 190t289 78.5q156 0 248 -76.5t92 -216.5q0 -184 -142.5 -339.5t-385.5 -155.5q-156 0 -248 77t-92 214z M434 1055q0 -143 178 -144q78 0 137.5 29t92 68t52 89t26 87t6.5 65q0 143 -178 144q-80 0 -140.5 -29t-92.5 -70t-51.5 -92t-24.5 -84.5t-5 -62.5z" />
<glyph unicode="&#xbb;" horiz-adv-x="1433" d="M236 115q0 14 36 51q219 207 383 321q-94 113 -164.5 226.5t-70.5 138.5q0 23 45 22h53q16 0 23.5 -1t13.5 -3t12 -10l11.5 -16t17.5 -30l25 -42q55 -90 108 -158l75 -93q22 -26 21 -38q0 -14 -34 -39q-137 -102 -233.5 -184t-124 -111.5t-50.5 -43t-55 -13.5h-37 q-55 0 -55 23zM508 23q0 14 49 63q117 109 260.5 227.5t222.5 173.5q-80 94 -153.5 201t-111.5 173.5t-38 80.5q0 27 45 27h56h18q6 0 13.5 -4t10.5 -8.5t12 -15.5t15 -22.5t22 -35.5l29 -47q66 -100 133.5 -184.5t99.5 -120t32 -46.5q0 -20 -41 -45q-215 -156 -480 -387 q-43 -39 -55 -46t-41 -7h-53q-45 0 -45 23z" />
<glyph unicode="&#xbc;" horiz-adv-x="1171" d="M119 92q0 51 104 55q340 49 406 154q2 4 12 26.5t19.5 36t30 26.5t48.5 13q18 0 29 -2q12 47 25.5 67.5t50.5 37.5v2h-545q-37 0 -45 2q-45 16 -45 59q0 61 80 62h872q84 0 84 -61.5t-80 -61.5h-211q-33 0 -49 -2q47 -23 47 -74q0 -14 -86 -354q106 -8 128 -15.5 t46 -39.5q25 -29 25 -50q0 -10 -4 -17t-10.5 -11t-16.5 -7.5t-16 -3.5t-17.5 -1t-13.5 -1q-133 -10 -160 -10q-53 -248 -79 -280q-33 -39 -78 -39q-33 0 -55.5 21.5t-22.5 53.5q0 18 59 256q-88 10 -153.5 15.5t-85 5.5t-39 5t-54.5 22q-53 25 -69 24q-8 0 -24.5 -2 t-22.5 -2q-29 0 -56.5 36t-27.5 54zM459 799q0 18 9 55t30 49q10 6 37 6h215l94 385q-117 -45 -223 -45q-72 0 -72 45q0 14 12 56q6 29 18.5 40t28 12t55 4t78.5 11q88 18 148.5 52t91.5 58.5t53 24.5q16 0 29.5 -10t13.5 -24q0 -20 -24 -120l-65 -253q-40 -154 -58 -236 h174q55 0 55 -43q0 -49 -22 -88q-14 -23 -58 -22h-551q-23 0 -34 1t-23 11.5t-12 30.5zM606 96l84 -8v2l17 64q-41 -27 -101 -56v-2z" />
<glyph unicode="&#xbd;" horiz-adv-x="1171" d="M80 -391q0 31 37 88t98 106q90 70 259 124.5t226 80.5q68 31 92.5 58.5t24.5 66.5q0 113 -192 117q18 -29 18 -57q0 -76 -89 -144.5t-239 -68.5q-186 0 -186 90q0 109 144.5 222.5t347.5 113.5q160 0 273.5 -61.5t113.5 -197.5q0 -70 -36 -126t-104.5 -96t-123 -62.5 t-138.5 -48t-104 -33.5q18 -2 92 -9.5t111 -7.5q92 0 150 50.5t83 105.5q10 29 20.5 34t51.5 5h51q45 0 45 -29q0 -31 -29.5 -86t-80 -115.5t-136.5 -104.5t-180 -44q-68 0 -191.5 30t-169.5 30q-47 0 -70.5 -30t-55.5 -30h-70q-43 0 -43 29zM209 569q0 20 15.5 38t37.5 22 q12 2 39 2h852q43 0 57 -6q35 -18 35 -56q0 -61 -82 -61h-876q-78 0 -78 61zM309 113q35 20 78 22t68 15q14 6 28 20q-25 4 -32 16q-10 14 18 43l8 7q-127 -41 -168 -123zM459 799q0 16 10 54t29 50q12 6 37 6h215l96 385q-117 -45 -225 -45q-70 0 -70 45q0 4 10 56 q8 29 20.5 40t28 12t54 4t77.5 11q70 14 124.5 39t78 45.5t47 35.5t43.5 15q18 0 31.5 -10t13.5 -24q0 -16 -24 -115l-64 -249q-39 -151 -59 -245h174q53 0 53 -43q0 -49 -22 -88q-14 -23 -56 -22h-551q-23 0 -35 1t-24 11.5t-12 30.5z" />
<glyph unicode="&#xbe;" horiz-adv-x="1171" d="M123 98q0 25 41 32t139 22.5t191 50.5q51 20 83.5 43.5t43 37t20.5 39t12 29.5q35 51 95 51q14 0 22 -2q6 27 10 39.5t21.5 34t46.5 31.5v2h-549q-39 0 -47 2q-43 14 -43 59q0 61 84 62h866q86 0 86 -62q0 -49 -49 -59q-12 -2 -39 -2h-199q-31 0 -47 -2q43 -25 43 -66 q0 -14 -12 -63l-36 -139q-24 -90 -40 -160q43 -4 72 -9.5t46 -15.5l23.5 -14t17.5 -21.5t15 -21.5q18 -29 19 -41q0 -4 -2 -8t-6 -6l-9 -4q-4 -2 -12 -3h-12h-13h-14q-18 -2 -51 -5t-60.5 -5t-52.5 -2q-14 -55 -32 -133q-31 -127 -45 -143q-2 0 -2 -2q-35 -41 -82 -41 q-31 0 -52.5 19.5t-21.5 49.5q0 43 61 262l-211 19q-72 4 -108 22q-6 4 -10 7q-55 27 -74 26q-6 0 -17.5 -3t-19.5 -3q-31 0 -60.5 41t-29.5 55zM418 1004q0 94 40 133t89 39q37 0 60.5 -21.5t23.5 -56.5q0 -47 -43 -90q27 -121 160 -121h26q152 0 204 25.5t52 78.5 q0 92 -156 92h-112q-51 0 -51 31q0 8 3 19.5t7 29t6 29.5q-27 2 -27 18q0 18 33 45q-199 0 -198 107q0 49 37.5 95t99.5 69q94 33 289 33q199 0 274.5 -60.5t75.5 -142.5q0 -111 -146 -207q55 -61 56 -143q0 -78 -46.5 -134.5t-125 -85t-160.5 -41t-172 -12.5 q-145 0 -222 79t-77 192zM606 98l86 -10l17 68q-66 -42 -103 -58zM768 1239h133q229 0 229 100q0 63 -180 64h-22q-106 0 -160 -6q14 -31 16 -86l25 4l2 -2q4 0 30.5 7t39.5 7q39 0 39 -33q0 -10 -4.5 -16t-15.5 -10t-16 -5t-22.5 -3.5t-21.5 -2.5h-13l-6 -2h-35v-6l-8 6z M786 1249l5 -8h-3z" />
<glyph unicode="&#xbf;" d="M225 -164q0 184 178 314q33 23 182.5 106.5t164.5 95.5q33 31 32 64q0 29 -37 28q-61 0 -100 -45q-6 -6 -11 -15l-8 -14q-3 -5 -13.5 -10.5t-26.5 -5.5h-74q-45 2 -45 27q0 68 98.5 143.5t222.5 75.5q78 0 119 -43t41 -113q0 -141 -119 -229q-49 -37 -175 -100.5 t-194.5 -122t-68.5 -131.5q0 -49 41 -88t146 -39q121 0 216 60.5t101 101.5q0 4 -2 26.5t2 36.5q10 41 44 69.5t73 28.5q37 0 61.5 -21.5t24.5 -58.5q0 -129 -165 -264t-384 -135q-139 0 -231.5 64.5t-92.5 193.5zM743 874q0 57 46.5 103.5t105.5 46.5q45 0 77 -29.5 t32 -76.5q0 -57 -47.5 -103.5t-106.5 -46.5q-45 0 -76 29.5t-31 76.5z" />
<glyph unicode="&#xc0;" horiz-adv-x="1859" d="M1067 1759q0 37 29.5 69t70.5 32q6 0 13.5 -1t19.5 -5.5l25 -9.5l38 -15l52 -22l74 -30l94 -38q49 -20 49 -47q0 -23 -31 -71t-57 -48q-23 0 -307 108q-70 23 -70 78zM156 43q0 16 11 54t26 48q12 8 57 9q37 0 106 4l805 1235q37 55 96 55h72q23 0 37 -9t18.5 -21.5 t8.5 -33.5q10 -53 186 -1230h100q59 0 60 -43q0 -12 -10 -48q-10 -39 -22.5 -51t-45.5 -12h-361q-61 0 -61 43q0 4 3 23.5t13.5 46t22.5 34.5q12 6 41 7h57l-41 270h-594q-20 -2 -34.5 -17.5t-67.5 -99.5l-98 -151h18q12 0 18.5 -1t17.5 -2t17 -4.5t12.5 -8.5t9.5 -12t3 -17 q0 -6 -2 -14.5t-4 -19.5t-4 -20q-8 -35 -21.5 -45t-40.5 -12h-350q-59 0 -59 43zM815 578h496l-92 622z" />
<glyph unicode="&#xc1;" horiz-adv-x="1859" d="M1102 1681q0 10 2 17.5t7 13.5t7 9t12.5 7.5t12.5 5.5t16 5l12 4q338 117 361 117q33 0 54.5 -24t21.5 -52q0 -76 -95 -103q-12 -6 -182 -57t-180 -51q-49 -1 -49 108zM156 43q0 16 11 54t26 48q12 8 57 9q37 0 106 4l805 1235q37 55 96 55h72q23 0 37 -9t18.5 -21.5 t8.5 -33.5q10 -53 186 -1230h100q59 0 60 -43q0 -12 -10 -48q-10 -39 -22.5 -51t-45.5 -12h-361q-61 0 -61 43q0 4 3 23.5t13.5 46t22.5 34.5q12 6 41 7h57l-41 270h-594q-20 -2 -34.5 -17.5t-67.5 -99.5l-98 -151h18q12 0 18.5 -1t17.5 -2t17 -4.5t12.5 -8.5t9.5 -12t3 -17 q0 -6 -2 -14.5t-4 -19.5t-4 -20q-8 -35 -21.5 -45t-40.5 -12h-350q-59 0 -59 43zM815 578h496l-92 622z" />
<glyph unicode="&#xc2;" horiz-adv-x="1859" d="M973 1638q0 16 35 52l282 252q88 76 108.5 90t31 14t18.5 -4t16.5 -14.5t13.5 -18.5l15 -26q10 -17 16 -25q193 -301 193 -320q0 -25 -48 -58.5t-69 -33.5q-8 0 -14 3t-13.5 11.5t-13.5 16.5t-15 24.5l-15.5 28.5l-18.5 35l-20 39q-12 25 -39 73t-39 72 q-72 -63 -154 -146t-123 -120t-57 -37q-23 0 -56.5 36t-33.5 56zM156 43q0 16 11 54t26 48q12 8 57 9q37 0 106 4l805 1235q37 55 96 55h72q23 0 37 -9t18.5 -21.5t8.5 -33.5q10 -53 186 -1230h100q59 0 60 -43q0 -12 -10 -48q-10 -39 -22.5 -51t-45.5 -12h-361 q-61 0 -61 43q0 4 3 23.5t13.5 46t22.5 34.5q12 6 41 7h57l-41 270h-594q-20 -2 -34.5 -17.5t-67.5 -99.5l-98 -151h18q12 0 18.5 -1t17.5 -2t17 -4.5t12.5 -8.5t9.5 -12t3 -17q0 -6 -2 -14.5t-4 -19.5t-4 -20q-8 -35 -21.5 -45t-40.5 -12h-350q-59 0 -59 43zM815 578h496 l-92 622z" />
<glyph unicode="&#xc3;" horiz-adv-x="1859" d="M922 1792q0 25 92 125q115 119 223 119q70 0 174.5 -65.5t153.5 -65.5q47 0 92 32.5t76.5 64.5t48.5 32q18 0 54 -27t36 -49q0 -12 -9.5 -26.5t-28.5 -36l-24 -27.5q-127 -154 -254 -154q-72 0 -175 65.5t-152 65.5q-61 0 -132 -64.5t-85 -64.5q-18 0 -54 28t-36 48z M156 43q0 16 11 54t26 48q12 8 57 9q37 0 106 4l805 1235q37 55 96 55h72q23 0 37 -9t18.5 -21.5t8.5 -33.5q10 -53 186 -1230h100q59 0 60 -43q0 -12 -10 -48q-10 -39 -22.5 -51t-45.5 -12h-361q-61 0 -61 43q0 4 3 23.5t13.5 46t22.5 34.5q12 6 41 7h57l-41 270h-594 q-20 -2 -34.5 -17.5t-67.5 -99.5l-98 -151h18q12 0 18.5 -1t17.5 -2t17 -4.5t12.5 -8.5t9.5 -12t3 -17q0 -6 -2 -14.5t-4 -19.5t-4 -20q-8 -35 -21.5 -45t-40.5 -12h-350q-59 0 -59 43zM815 578h496l-92 622z" />
<glyph unicode="&#xc4;" horiz-adv-x="1859" d="M987 1649q0 55 46 101t106 46q47 0 77.5 -30.5t30.5 -75.5q0 -55 -46 -101.5t-107 -46.5q-45 0 -76 30t-31 77zM1444 1649q0 55 46 101t105 46q49 0 79 -30.5t30 -75.5q0 -55 -45 -101.5t-107 -46.5q-45 0 -76.5 30t-31.5 77zM156 43q0 16 11 54t26 48q12 8 57 9 q37 0 106 4l805 1235q37 55 96 55h72q23 0 37 -9t18.5 -21.5t8.5 -33.5q10 -53 186 -1230h100q59 0 60 -43q0 -12 -10 -48q-10 -39 -22.5 -51t-45.5 -12h-361q-61 0 -61 43q0 4 3 23.5t13.5 46t22.5 34.5q12 6 41 7h57l-41 270h-594q-20 -2 -34.5 -17.5t-67.5 -99.5 l-98 -151h18q12 0 18.5 -1t17.5 -2t17 -4.5t12.5 -8.5t9.5 -12t3 -17q0 -6 -2 -14.5t-4 -19.5t-4 -20q-8 -35 -21.5 -45t-40.5 -12h-350q-59 0 -59 43zM815 578h496l-92 622z" />
<glyph unicode="&#xc5;" horiz-adv-x="1859" d="M1094 1626q0 141 95 269t253 128q94 0 148.5 -53t54.5 -145q0 -143 -96.5 -270.5t-254.5 -127.5q-94 0 -147 53.5t-53 145.5zM1229 1661q0 -82 100 -82q59 0 101 25q41 29 60 87t19 99q0 80 -106 80q-78 0 -114 -39t-54 -121q-6 -22 -6 -49zM156 43q0 16 11 54t26 48 q12 8 57 9q37 0 106 4l805 1235q37 55 96 55h72q23 0 37 -9t18.5 -21.5t8.5 -33.5q10 -53 186 -1230h100q59 0 60 -43q0 -12 -10 -48q-10 -39 -22.5 -51t-45.5 -12h-361q-61 0 -61 43q0 4 3 23.5t13.5 46t22.5 34.5q12 6 41 7h57l-41 270h-594q-20 -2 -34.5 -17.5 t-67.5 -99.5l-98 -151h18q12 0 18.5 -1t17.5 -2t17 -4.5t12.5 -8.5t9.5 -12t3 -17q0 -6 -2 -14.5t-4 -19.5t-4 -20q-8 -35 -21.5 -45t-40.5 -12h-350q-59 0 -59 43zM815 578h496l-92 622z" />
<glyph unicode="&#xc6;" horiz-adv-x="2236" d="M158 43q0 18 10 55t27 47q12 8 57 9q35 0 108 4l734 1112q-27 16 -27 43q0 6 10 53q10 35 24.5 45t43.5 10h1128q61 0 62 -47l-45 -366q-4 -39 -19.5 -49.5t-48.5 -10.5h-37q-35 0 -48 12.5t-13 40.5q0 14 9 86t9 132v36q-80 12 -266 13h-340l-125 -506h145q209 0 228 8 q20 8 39.5 84t34.5 88q10 10 38 10h46q61 0 61 -43q0 -12 -55.5 -235t-63.5 -238q-16 -20 -49 -20h-47q-59 0 -59 43q0 16 11 64t15 79q-117 6 -233 6h-150l-2 -2l-110 -452h319q162 0 232.5 6t86 13t29.5 30q37 61 129 276q10 27 23.5 36t42.5 9h39q2 2 6 2q59 0 59 -41 q0 -16 -14 -49l-166 -391q-12 -27 -25.5 -36t-42.5 -9h-1001q-57 0 -57 43q8 84 38 102q12 8 43 9h64l113 454h-336l-297 -452q4 0 18.5 -1t19.5 -1t16 -2t16.5 -4.5t12.5 -7.5t9 -12t2 -17q0 -6 -2 -14.5t-4 -19.5t-4 -20q-8 -35 -21.5 -45t-40.5 -12h-352q-57 0 -57 43z M944 762h273l126 506h-63z" />
<glyph unicode="&#xc7;" horiz-adv-x="1826" d="M344 516q0 166 68.5 330t190.5 298t312.5 218t413.5 84q279 0 432 -180h2q29 33 68 82q59 72 74.5 85t40.5 13q37 0 36 -31q0 -6 -59 -244.5t-59 -240.5q-6 -27 -17.5 -33t-36.5 -6h-57q-41 0 -53 5t-12 30q2 14 2 43q0 139 -85 230t-241 91q-170 0 -311.5 -48 t-233.5 -126t-156.5 -178t-93 -201.5t-28.5 -199.5q0 -117 46 -200t125 -126t164 -61.5t183 -18.5q184 0 325.5 94t190.5 230q16 41 24 45q12 6 70 6h23q55 0 55 -29q0 -37 -32 -97.5t-93 -133t-173 -141t-251 -101.5l-70 -16q92 -51 93 -142q0 -74 -52.5 -135t-158.5 -90 q-111 -31 -322 -31h-14q-70 0 -70 41q0 10 12 60q8 35 22.5 45t45.5 10h8q346 0 346 84q0 33 -73.5 43t-81.5 18q-10 10 -11 29q0 10 13 62q-242 18 -391.5 156t-149.5 378z" />
<glyph unicode="&#xc8;" horiz-adv-x="1626" d="M1026 1759q0 39 28.5 70t69.5 31q10 0 18.5 -1t18.5 -4.5t33 -13.5l49 -21l82 -34l117 -47q49 -18 49 -47q0 -14 -33 -68q0 -2 -6 -11t-9 -14.5t-10.5 -12.5t-14.5 -10t-17 -3q-23 0 -307 108q-68 25 -68 78zM225 43q8 86 39 104q10 6 51 7h95l278 1110h-82q-66 0 -65 43 q0 41 20 82q12 29 57 28h1043q61 0 61 -49l-43 -369q-6 -37 -20 -46t-47 -9h-39q-35 0 -47.5 12.5t-12.5 40.5q0 14 8.5 85t8.5 128v39q-74 14 -268 15h-377l-2 -2l-113 -449h143q123 0 187 6q16 43 28.5 88t17.5 60.5t18.5 26t41.5 10.5h41q61 0 62 -43q0 -6 -26 -109 l-50 -203l-25 -100q-2 -6 -7 -24.5t-6 -22.5t-7 -14.5t-12.5 -12.5t-17.5 -5t-28 -3h-32q-63 0 -64 41q0 12 4 32.5t11.5 53.5t11.5 59q-57 4 -174 4h-154l-127 -503h320q184 0 264 6t96.5 13t30.5 30q41 66 129 276q12 25 24.5 35t42.5 10h39q63 0 64 -39q0 -14 -14 -47 l-166 -393q-12 -27 -25.5 -36t-40.5 -9h-1087q-58 0 -58 43z" />
<glyph unicode="&#xc9;" horiz-adv-x="1626" d="M1092 1681q0 10 2 17.5t6 13.5t8 9t12 7.5t11.5 5.5t14.5 5t13 4q346 117 363 117q33 0 54 -24t21 -52q0 -72 -94 -103q-338 -109 -360 -108q-51 -1 -51 108zM225 43q8 86 39 104q10 6 51 7h95l278 1110h-82q-66 0 -65 43q0 41 20 82q12 29 57 28h1043q61 0 61 -49 l-43 -369q-6 -37 -20 -46t-47 -9h-39q-35 0 -47.5 12.5t-12.5 40.5q0 14 8.5 85t8.5 128v39q-74 14 -268 15h-377l-2 -2l-113 -449h143q123 0 187 6q16 43 28.5 88t17.5 60.5t18.5 26t41.5 10.5h41q61 0 62 -43q0 -6 -26 -109l-50 -203l-25 -100q-2 -6 -7 -24.5t-6 -22.5 t-7 -14.5t-12.5 -12.5t-17.5 -5t-28 -3h-32q-63 0 -64 41q0 12 4 32.5t11.5 53.5t11.5 59q-57 4 -174 4h-154l-127 -503h320q184 0 264 6t96.5 13t30.5 30q41 66 129 276q12 25 24.5 35t42.5 10h39q63 0 64 -39q0 -14 -14 -47l-166 -393q-12 -27 -25.5 -36t-40.5 -9h-1087 q-58 0 -58 43z" />
<glyph unicode="&#xca;" horiz-adv-x="1626" d="M866 1638.5q0 20.5 35 51.5q381 336 397 348q12 8 25 8q8 0 16.5 -4t16.5 -14.5t13 -18.5l15 -26q10 -17 17 -25q193 -301 192 -320q0 -25 -49 -58.5t-67 -33.5q-33 0 -56 58l-131 245q-53 -47 -135 -129t-132 -128t-67 -46q-23 0 -56.5 36t-33.5 56.5zM225 43 q8 86 39 104q10 6 51 7h95l278 1110h-82q-66 0 -65 43q0 41 20 82q12 29 57 28h1043q61 0 61 -49l-43 -369q-6 -37 -20 -46t-47 -9h-39q-35 0 -47.5 12.5t-12.5 40.5q0 14 8.5 85t8.5 128v39q-74 14 -268 15h-377l-2 -2l-113 -449h143q123 0 187 6q16 43 28.5 88t17.5 60.5 t18.5 26t41.5 10.5h41q61 0 62 -43q0 -6 -26 -109l-50 -203l-25 -100q-2 -6 -7 -24.5t-6 -22.5t-7 -14.5t-12.5 -12.5t-17.5 -5t-28 -3h-32q-63 0 -64 41q0 12 4 32.5t11.5 53.5t11.5 59q-57 4 -174 4h-154l-127 -503h320q184 0 264 6t96.5 13t30.5 30q41 66 129 276 q12 25 24.5 35t42.5 10h39q63 0 64 -39q0 -14 -14 -47l-166 -393q-12 -27 -25.5 -36t-40.5 -9h-1087q-58 0 -58 43z" />
<glyph unicode="&#xcb;" horiz-adv-x="1626" d="M879 1649q0 55 46 101t105 46q45 0 77 -28.5t32 -75.5q0 -57 -46 -103.5t-108 -46.5q-45 0 -75.5 30t-30.5 77zM1335 1649q0 55 47.5 102t106.5 47q45 0 75.5 -29.5t30.5 -78.5q0 -55 -46 -101.5t-105 -46.5q-45 0 -77 30t-32 77zM225 43q8 86 39 104q10 6 51 7h95 l278 1110h-82q-66 0 -65 43q0 41 20 82q12 29 57 28h1043q61 0 61 -49l-43 -369q-6 -37 -20 -46t-47 -9h-39q-35 0 -47.5 12.5t-12.5 40.5q0 14 8.5 85t8.5 128v39q-74 14 -268 15h-377l-2 -2l-113 -449h143q123 0 187 6q16 43 28.5 88t17.5 60.5t18.5 26t41.5 10.5h41 q61 0 62 -43q0 -6 -26 -109l-50 -203l-25 -100q-2 -6 -7 -24.5t-6 -22.5t-7 -14.5t-12.5 -12.5t-17.5 -5t-28 -3h-32q-63 0 -64 41q0 12 4 32.5t11.5 53.5t11.5 59q-57 4 -174 4h-154l-127 -503h320q184 0 264 6t96.5 13t30.5 30q41 66 129 276q12 25 24.5 35t42.5 10h39 q63 0 64 -39q0 -14 -14 -47l-166 -393q-12 -27 -25.5 -36t-40.5 -9h-1087q-58 0 -58 43z" />
<glyph unicode="&#xcc;" horiz-adv-x="944" d="M645 1759q0 37 28.5 69t69.5 32q6 0 13.5 -1t19.5 -5.5l25 -9.5l38 -15l52 -22l74 -30l94 -38q49 -20 49 -47q0 -23 -30.5 -71t-57.5 -48q-23 0 -307 108q-68 23 -68 78zM219 43q0 16 10.5 54t26.5 48q12 8 53 9h103l278 1114h-88q-66 0 -65 43q0 6 3 24.5t12 45t23 34.5 q12 6 39 6h408q57 0 57 -43q0 -18 -10 -55t-27 -47q-12 -8 -53 -8h-102l-279 -1114h88q35 0 50.5 -8.5t15.5 -34.5q-8 -86 -39 -105q-10 -6 -37 -6h-407q-60 0 -60 43z" />
<glyph unicode="&#xcd;" horiz-adv-x="944" d="M664 1681q0 10 2 17.5t7 13.5t7 9t12 7.5t12.5 5.5t16.5 5l12 4q338 117 361 117q33 0 54 -24t21 -52q0 -76 -94 -103q-8 -4 -180 -56t-182 -52q-49 -1 -49 108zM219 43q0 16 10.5 54t26.5 48q12 8 53 9h103l278 1114h-88q-66 0 -65 43q0 6 3 24.5t12 45t23 34.5 q12 6 39 6h408q57 0 57 -43q0 -18 -10 -55t-27 -47q-12 -8 -53 -8h-102l-279 -1114h88q35 0 50.5 -8.5t15.5 -34.5q-8 -86 -39 -105q-10 -6 -37 -6h-407q-60 0 -60 43z" />
<glyph unicode="&#xce;" horiz-adv-x="944" d="M518 1638.5q0 20.5 35 51.5l231 206q78 70 121 105t52.5 40t17.5 5t16 -4t16.5 -14.5t13.5 -18.5l15 -26q10 -17 17 -25l172 -270q23 -37 22 -50q0 -25 -49 -58.5t-70 -33.5q-6 0 -11 2t-10 6.5t-9 9.5t-10.5 14t-10.5 16l-12 22q-8 14 -13 24l-15 30q-9 19 -17 34 l-78 145q-33 -29 -149 -142l-144 -138q-23 -23 -41 -23q-23 0 -56.5 36t-33.5 56.5zM219 43q0 16 10.5 54t26.5 48q12 8 53 9h103l278 1114h-88q-66 0 -65 43q0 6 3 24.5t12 45t23 34.5q12 6 39 6h408q57 0 57 -43q0 -18 -10 -55t-27 -47q-12 -8 -53 -8h-102l-279 -1114h88 q35 0 50.5 -8.5t15.5 -34.5q-8 -86 -39 -105q-10 -6 -37 -6h-407q-60 0 -60 43z" />
<glyph unicode="&#xcf;" horiz-adv-x="944" d="M530 1649q0 55 46.5 101t105.5 46q45 0 77 -28.5t32 -75.5q0 -61 -48.5 -105.5t-105.5 -44.5q-47 0 -77 31t-30 76zM987 1649q0 55 46 101t106 46q49 0 78.5 -30.5t29.5 -75.5q0 -55 -46 -101.5t-105 -46.5q-45 0 -77 30t-32 77zM219 43q0 16 10.5 54t26.5 48q12 8 53 9 h103l278 1114h-88q-66 0 -65 43q0 6 3 24.5t12 45t23 34.5q12 6 39 6h408q57 0 57 -43q0 -18 -10 -55t-27 -47q-12 -8 -53 -8h-102l-279 -1114h88q35 0 50.5 -8.5t15.5 -34.5q-8 -86 -39 -105q-10 -6 -37 -6h-407q-60 0 -60 43z" />
<glyph unicode="&#xd0;" horiz-adv-x="1908" d="M227 43q0 41 21 82q12 29 61 29h103l116 467h-86q-59 0 -59 38q0 12 10 53.5t23.5 52.5t46.5 11h104l123 492h-86q-59 0 -59 43q0 8 10 55q10 37 24.5 47t57.5 10q6 0 19.5 -1t19.5 -1h624q2 0 15.5 1t23.5 1q82 0 159 -13t155 -50t134 -92.5t92 -147.5t36 -209 q0 -96 -24.5 -204.5t-93 -237.5t-172 -230.5t-280 -170t-395.5 -68.5h-665q-58 0 -58 43zM604 154h352q608 0 744 553q23 98 22 180q0 111 -36.5 187.5t-106.5 117.5t-151.5 58.5t-188.5 17.5h-358l-123 -492h403q49 -2 49 -41q0 -23 -10 -53q-6 -25 -9 -34t-16.5 -18 t-37.5 -9h-418z" />
<glyph unicode="&#xd1;" horiz-adv-x="1945" d="M965 1792q0 27 92 123q117 121 223 121q72 0 176.5 -65.5t153.5 -65.5q45 0 90 32.5t77.5 64.5t49.5 32q18 0 54 -27t36 -49q0 -12 -9.5 -26.5t-28.5 -36l-24 -27.5q-125 -154 -256 -154q-72 0 -175 65.5t-152 65.5q-47 0 -92 -31.5t-77 -64.5t-48 -33q-20 0 -55 26.5 t-35 49.5zM231 43q0 14 10.5 52t26.5 50q12 8 54 9q31 0 96 4l276 1110h-80q-66 0 -65 45q8 82 37 100q12 8 37 8h247q31 0 43.5 -10t30.5 -47l535 -1051l237 953q-29 2 -84 2q-61 0 -61 43q0 8 10 53q10 37 23.5 47t40.5 10h364q57 0 57 -43q0 -16 -9 -53t-25 -49 q-12 -8 -56 -8q-63 0 -94 -2l-31 -123l-272 -1088q-6 -27 -17.5 -39t-20.5 -14t-32 -2h-39q-29 0 -41 7t-26 34l-569 1120l-252 -1005q29 -2 84 -2q61 0 61 -43q0 -12 -10 -54q-12 -57 -64 -57h-364q-58 0 -58 43z" />
<glyph unicode="&#xd2;" horiz-adv-x="1871" d="M1139 1759q0 39 29.5 70t70.5 31q4 0 9 -1t14 -4l16 -4q8 -2 22 -8l29 -12q14 -6 39 -15.5t48 -19.5l63 -27l75 -30q49 -23 50 -47q0 -23 -31 -71t-57 -48q-20 0 -310 108q-67 25 -67 78zM340 492q0 125 38 256t117.5 255.5t190.5 223t269.5 159t340.5 60.5 q82 0 158 -14.5t156 -51.5t138 -94t95 -151.5t37 -214.5q0 -129 -39 -260.5t-119 -254t-190.5 -218t-267 -153t-336.5 -57.5q-270 0 -429 133.5t-159 381.5zM545 539q0 -113 39 -193t104.5 -121t135 -59.5t147.5 -18.5q147 0 272 53.5t205 136.5t136 186.5t81 200.5t25 183 q0 106 -39 183t-105.5 116t-137.5 56.5t-153 17.5q-145 0 -266 -47t-201.5 -122t-137 -173t-81 -198.5t-24.5 -200.5z" />
<glyph unicode="&#xd3;" horiz-adv-x="1871" d="M1108 1681q0 10 2 17.5t7 13.5t7 9t12.5 7.5t12.5 5.5t14 5l15 4q338 117 360 117q33 0 54.5 -24t21.5 -52q0 -72 -94 -103q-8 -4 -180.5 -56t-182.5 -52q-49 -1 -49 108zM340 492q0 125 38 256t117.5 255.5t190.5 223t269.5 159t340.5 60.5q82 0 158 -14.5t156 -51.5 t138 -94t95 -151.5t37 -214.5q0 -129 -39 -260.5t-119 -254t-190.5 -218t-267 -153t-336.5 -57.5q-270 0 -429 133.5t-159 381.5zM545 539q0 -113 39 -193t104.5 -121t135 -59.5t147.5 -18.5q147 0 272 53.5t205 136.5t136 186.5t81 200.5t25 183q0 106 -39 183t-105.5 116 t-137.5 56.5t-153 17.5q-145 0 -266 -47t-201.5 -122t-137 -173t-81 -198.5t-24.5 -200.5z" />
<glyph unicode="&#xd4;" horiz-adv-x="1871" d="M979 1638q0 18 37 52l348 307q57 49 72 49q10 0 18 -4t16.5 -14.5t13.5 -18.5l15 -26q10 -17 17 -25q193 -301 192 -320q0 -25 -49 -58.5t-68 -33.5q-8 0 -14 3t-13.5 10.5t-12.5 14.5t-14 23.5t-15 28.5l-19 36q-12 24 -20 42l-78 145q-53 -47 -136 -129l-133 -128 q-50 -46 -67 -46q-23 0 -56.5 36t-33.5 56zM340 492q0 125 38 256t117.5 255.5t190.5 223t269.5 159t340.5 60.5q82 0 158 -14.5t156 -51.5t138 -94t95 -151.5t37 -214.5q0 -129 -39 -260.5t-119 -254t-190.5 -218t-267 -153t-336.5 -57.5q-270 0 -429 133.5t-159 381.5z M545 539q0 -113 39 -193t104.5 -121t135 -59.5t147.5 -18.5q147 0 272 53.5t205 136.5t136 186.5t81 200.5t25 183q0 106 -39 183t-105.5 116t-137.5 56.5t-153 17.5q-145 0 -266 -47t-201.5 -122t-137 -173t-81 -198.5t-24.5 -200.5z" />
<glyph unicode="&#xd5;" horiz-adv-x="1871" d="M928 1792q0 31 92 123q113 121 221 121q74 0 178.5 -65.5t151.5 -65.5t92 32.5t77 64.5t48 32q18 0 54 -27t36 -49q0 -12 -9 -26.5t-28.5 -36t-23.5 -27.5q-129 -154 -254 -154q-72 0 -175.5 65.5t-154.5 65.5q-47 0 -91 -31.5t-76 -64.5t-48 -33q-20 0 -55 26.5 t-35 49.5zM340 492q0 125 38 256t117.5 255.5t190.5 223t269.5 159t340.5 60.5q82 0 158 -14.5t156 -51.5t138 -94t95 -151.5t37 -214.5q0 -129 -39 -260.5t-119 -254t-190.5 -218t-267 -153t-336.5 -57.5q-270 0 -429 133.5t-159 381.5zM545 539q0 -113 39 -193t104.5 -121 t135 -59.5t147.5 -18.5q147 0 272 53.5t205 136.5t136 186.5t81 200.5t25 183q0 106 -39 183t-105.5 116t-137.5 56.5t-153 17.5q-145 0 -266 -47t-201.5 -122t-137 -173t-81 -198.5t-24.5 -200.5z" />
<glyph unicode="&#xd6;" horiz-adv-x="1871" d="M993 1649q0 55 46 101t106 46q47 0 77.5 -30.5t30.5 -75.5q0 -55 -47 -101.5t-106 -46.5q-45 0 -76 30t-31 77zM1450 1649q0 55 46 101t106 46q49 0 78.5 -30.5t29.5 -75.5q0 -53 -45 -100.5t-106 -47.5q-45 0 -77 30t-32 77zM340 492q0 125 38 256t117.5 255.5 t190.5 223t269.5 159t340.5 60.5q82 0 158 -14.5t156 -51.5t138 -94t95 -151.5t37 -214.5q0 -129 -39 -260.5t-119 -254t-190.5 -218t-267 -153t-336.5 -57.5q-270 0 -429 133.5t-159 381.5zM545 539q0 -113 39 -193t104.5 -121t135 -59.5t147.5 -18.5q147 0 272 53.5 t205 136.5t136 186.5t81 200.5t25 183q0 106 -39 183t-105.5 116t-137.5 56.5t-153 17.5q-145 0 -266 -47t-201.5 -122t-137 -173t-81 -198.5t-24.5 -200.5z" />
<glyph unicode="&#xd7;" horiz-adv-x="1957" d="M406 0q0 35 51 74l561 448l-328 439q-29 37 -28 61q0 27 17 44t42 17q31 0 67 -47l326 -436l74 57l485 390q47 37 69.5 36.5t42 -18.5t19.5 -43q0 -10 -3 -19.5t-10 -17.5t-12 -13t-14.5 -12.5t-11.5 -9.5l-563 -448v-2q102 -127 328 -437q31 -39 30 -63q0 -23 -17.5 -41 t-41.5 -18q-33 0 -70 47l-325 434l-72 -55l-487 -392q-43 -35 -70 -34q-23 0 -41 17t-18 42z" />
<glyph unicode="&#xd8;" horiz-adv-x="1957" d="M342 504q0 121 38 248t121 251.5t197.5 223t281.5 159t361 60.5q180 0 324 -62q82 98 160 177q27 23 41 22q20 0 58 -31.5t38 -54.5q0 -4 -1 -8t-4 -10t-7 -11.5t-12.5 -14.5t-15.5 -18.5t-21.5 -23.5t-26.5 -28.5t-34 -36.5l-40 -43v-3q164 -143 164 -391 q0 -127 -39 -256t-122 -250.5t-197.5 -216t-280.5 -152t-358 -57.5q-186 0 -324 58q-129 -143 -154.5 -169t-44.5 -26q-20 0 -59 31t-39 53q0 10 6 20.5t20.5 27t32 34t46 49t55.5 64.5q-164 135 -164 385zM528 518q0 -178 101 -268l915 1003q-111 37 -241 37 q-133 0 -247 -32.5t-192 -86t-139 -125t-97 -144.5t-59.5 -148.5t-32 -133t-8.5 -102.5zM764 168q111 -37 242 -37q176 0 316 55.5t223 139.5t138.5 191.5t75 199.5t19.5 176q0 168 -99 276z" />
<glyph unicode="&#xd9;" horiz-adv-x="1902" d="M1155 1759q0 39 28.5 70t69.5 31q6 0 13.5 -1t19.5 -5.5l25 -9.5l38 -15l52 -22l74 -30l94 -38q51 -20 51 -47q0 -20 -32 -69.5t-56.5 -49.5t-308.5 108q-68 23 -68 78zM477 360q0 45 25 164l131 523l55 221h-82q-63 0 -63 45q0 6 3 24.5t12 44t24 33.5q12 6 39 6h391 q57 0 57 -43q0 -18 -10 -55t-27 -47q-12 -8 -51 -8h-96l-60 -238l-131 -526q-23 -98 -22 -144q0 -229 305 -229q406 0 504 381q2 8 2 12l184 742q-27 2 -84 2q-61 0 -61 43q0 8 10 53q10 37 23.5 47t41.5 10h373q57 0 58 -43q0 -14 -10.5 -52t-26.5 -50q-12 -8 -54 -8 q-63 0 -96 -2l-11 -45q-7 -29 -9 -39l-166 -664q-20 -86 -37 -127q-74 -186 -247 -300t-413 -114q-209 0 -345 94t-136 289z" />
<glyph unicode="&#xda;" horiz-adv-x="1902" d="M1221 1681q0 10 2 17.5t7 13.5t7 9t12.5 7.5t12.5 5.5t16 5l12 4q338 117 361 117q33 0 54 -24t21 -52q0 -72 -94 -103q-12 -6 -182 -57t-180 -51q-49 -1 -49 108zM477 360q0 45 25 164l131 523l55 221h-82q-63 0 -63 45q0 6 3 24.5t12 44t24 33.5q12 6 39 6h391 q57 0 57 -43q0 -18 -10 -55t-27 -47q-12 -8 -51 -8h-96l-60 -238l-131 -526q-23 -98 -22 -144q0 -229 305 -229q406 0 504 381q2 8 2 12l184 742q-27 2 -84 2q-61 0 -61 43q0 8 10 53q10 37 23.5 47t41.5 10h373q57 0 58 -43q0 -14 -10.5 -52t-26.5 -50q-12 -8 -54 -8 q-63 0 -96 -2l-11 -45q-7 -29 -9 -39l-166 -664q-20 -86 -37 -127q-74 -186 -247 -300t-413 -114q-209 0 -345 94t-136 289z" />
<glyph unicode="&#xdb;" horiz-adv-x="1902" d="M999 1638.5q0 20.5 35 51.5l283 252q88 76 108.5 90t30.5 14q8 0 16.5 -4t16.5 -14l14 -19q6 -8 17 -24l16 -27q193 -301 193 -320q0 -25 -49.5 -58.5t-67.5 -33.5q-8 0 -14.5 3t-13.5 10.5t-12 14.5t-14.5 23.5t-15.5 28.5l-18 36l-23 42q-68 123 -78 145 q-72 -63 -153.5 -146t-122.5 -120t-57 -37q-23 0 -57 36t-34 56.5zM477 360q0 45 25 164l131 523l55 221h-82q-63 0 -63 45q0 6 3 24.5t12 44t24 33.5q12 6 39 6h391q57 0 57 -43q0 -18 -10 -55t-27 -47q-12 -8 -51 -8h-96l-60 -238l-131 -526q-23 -98 -22 -144 q0 -229 305 -229q406 0 504 381q2 8 2 12l184 742q-27 2 -84 2q-61 0 -61 43q0 8 10 53q10 37 23.5 47t41.5 10h373q57 0 58 -43q0 -14 -10.5 -52t-26.5 -50q-12 -8 -54 -8q-63 0 -96 -2l-11 -45q-7 -29 -9 -39l-166 -664q-20 -86 -37 -127q-74 -186 -247 -300t-413 -114 q-209 0 -345 94t-136 289z" />
<glyph unicode="&#xdc;" horiz-adv-x="1902" d="M1008 1649q0 55 46 101t105 46q49 0 79 -30.5t30 -75.5q0 -55 -46 -101.5t-108 -46.5q-45 0 -75.5 30t-30.5 77zM1464 1649q0 55 46 101t106 46q49 0 78.5 -30.5t29.5 -75.5q0 -55 -45 -101.5t-106 -46.5q-45 0 -77 30t-32 77zM477 360q0 45 25 164l131 523l55 221h-82 q-63 0 -63 45q0 6 3 24.5t12 44t24 33.5q12 6 39 6h391q57 0 57 -43q0 -18 -10 -55t-27 -47q-12 -8 -51 -8h-96l-60 -238l-131 -526q-23 -98 -22 -144q0 -229 305 -229q406 0 504 381q2 8 2 12l184 742q-27 2 -84 2q-61 0 -61 43q0 8 10 53q10 37 23.5 47t41.5 10h373 q57 0 58 -43q0 -14 -10.5 -52t-26.5 -50q-12 -8 -54 -8q-63 0 -96 -2l-11 -45q-7 -29 -9 -39l-166 -664q-20 -86 -37 -127q-74 -186 -247 -300t-413 -114q-209 0 -345 94t-136 289z" />
<glyph unicode="&#xdd;" horiz-adv-x="1859" d="M1200 1681q0 8 1 14.5t4 11.5t5 8t7.5 7t8.5 6.5t10 4.5t10 3l11.5 4t10.5 3q340 117 362 117q33 0 54.5 -24t21.5 -52q0 -76 -94 -103q-12 -6 -182 -57t-181 -51q-49 -1 -49 108zM434 1311q0 33 19 82q12 29 59 28h377q55 0 55 -43q0 -14 -9 -51t-26 -49 q-12 -10 -53 -10l266 -525l531 525q-49 2 -49 45q0 10 10 47q10 39 22.5 50t44.5 11h355q57 0 57 -43q0 -16 -10 -54t-27 -48q-12 -8 -59 -8q-100 0 -118.5 -5.5t-51.5 -37.5l-633 -627l-6 -6q-20 -23 -37 -78l-25 -96l-65 -264h82q66 0 65 -43q-10 -88 -39 -105 q-12 -6 -39 -6h-385q-59 0 -59 43q0 16 11.5 54t25.5 48q12 8 51 9h98l105 415l-356 699h-125q-62 0 -62 43z" />
<glyph unicode="&#xde;" horiz-adv-x="1581" d="M231 43q0 16 10.5 54t26.5 48q12 8 51 9h97l278 1114h-82q-63 0 -63 43q0 6 3 24.5t12 45t24 34.5q12 6 37 6h381q59 0 59 -43q0 -16 -11.5 -54t-25.5 -48q-12 -8 -53 -8h-96l-21 -82h338q70 0 134.5 -14.5t126 -46t98 -95t36.5 -151.5q0 -78 -31.5 -159t-93 -154.5 t-165 -126t-232.5 -64.5q-57 -6 -117 -6h-297l-53 -215h80q66 0 66 -43q-8 -86 -39 -105q-12 -6 -39 -6h-379q-60 0 -60 43zM694 524h238q219 0 340 86q127 92 127 226q0 197 -297 196h-281z" />
<glyph unicode="&#xdf;" horiz-adv-x="1368" d="M-33 -268q0 53 36 91t87 38q35 0 58.5 -21.5t23.5 -56.5q0 -12 -4 -37h6q61 0 94 60.5t60 177.5q25 106 155 829h-188q-55 0 -55 43q0 12 10 47q4 25 9 35t18.5 19.5t37.5 9.5h195q29 180 65 254q49 94 142 147q113 66 315 66q215 0 298 -58.5t83 -136.5q0 -18 -4 -37.5 t-9 -41t-7 -34.5q-29 -102 -63 -168.5t-56.5 -90t-70.5 -56.5t-68 -51q-45 -41 -45 -74q0 -35 35.5 -74t77.5 -70.5t78 -87t36 -118.5q0 -133 -124 -240.5t-286 -107.5q-102 0 -188 40t-86 130q0 53 31.5 90t83.5 37q33 0 55 -19.5t22 -54.5q0 -25 -14 -53q37 -14 111 -15 q100 0 151 59.5t51 108.5q0 37 -33.5 75t-72.5 67.5t-73 85t-34 120.5q0 61 29 107.5t97.5 102t78.5 65.5q37 35 65.5 103.5t40 116.5t11.5 60q0 39 -49 52.5t-176 13.5h-177q-55 0 -79.5 -50t-46.5 -173l-111 -619q-66 -365 -97.5 -490.5t-88.5 -203.5q-111 -154 -250 -154 q-82 0 -136.5 40.5t-54.5 101.5z" />
<glyph unicode="&#xe0;" d="M262 322q0 145 62.5 292.5t195.5 256t303 108.5q129 0 228 -84q39 51 90 51q35 0 55.5 -20.5t20.5 -51.5q0 -10 -17 -75l-135 -541q0 -4 -2 -13t-3 -16.5t-1 -13.5q0 -31 22.5 -51.5t48.5 -20.5q37 0 59.5 42t35 92.5t20.5 58.5q12 10 41 10h66q47 0 47 -29 q0 -35 -51 -145q-96 -184 -241.5 -184t-209.5 116q-154 -117 -311 -116q-145 0 -234.5 88t-89.5 246zM449 319q0 -94 47 -135t118 -41q104 0 194.5 84t123.5 213q37 139 37 174q0 119 -52.5 164t-121.5 45q-96 0 -169 -60.5t-109 -149.5t-52 -165t-16 -129zM651 1362 q0 37 31 68.5t70 31.5q29 0 88 -41l123 -84q90 -61 105 -74.5t15 -29.5q0 -18 -37.5 -65.5t-60.5 -47.5q-14 0 -82 41q-207 129 -223 144q-29 24 -29 57z" />
<glyph unicode="&#xe1;" d="M834 1231q0 10 3 17t11 14l12 9q4 3 14.5 9t12.5 6l128 64l98 51l65.5 33.5t49 21.5t29.5 6q33 0 54.5 -23.5t21.5 -54.5q0 -61 -80 -100q-340 -164 -356 -164q-23 0 -39 28t-20 56zM262 322q0 145 62.5 292.5t195.5 256t303 108.5q129 0 228 -84q39 51 90 51 q35 0 55.5 -20.5t20.5 -51.5q0 -10 -17 -75l-135 -541q0 -4 -2 -13t-3 -16.5t-1 -13.5q0 -31 22.5 -51.5t48.5 -20.5q37 0 59.5 42t35 92.5t20.5 58.5q12 10 41 10h66q47 0 47 -29q0 -35 -51 -145q-96 -184 -241.5 -184t-209.5 116q-154 -117 -311 -116q-145 0 -234.5 88 t-89.5 246zM449 319q0 -94 47 -135t118 -41q104 0 194.5 84t123.5 213q37 139 37 174q0 119 -52.5 164t-121.5 45q-96 0 -169 -60.5t-109 -149.5t-52 -165t-16 -129z" />
<glyph unicode="&#xe2;" d="M618 1300q0 10 3.5 17.5t13.5 16.5t17 13.5l25.5 16.5t29.5 18l149 95q162 102 180 102h2q20 0 262 -227q33 -29 33 -49q0 -23 -43 -64t-65 -41q-16 0 -37 17.5t-76 77t-104 106.5h-2l-67 -45l-118 -80l-84 -57q-31 -20 -47 -21q-25 0 -48.5 43t-23.5 61zM262 322 q0 145 62.5 292.5t195.5 256t303 108.5q129 0 228 -84q39 51 90 51q35 0 55.5 -20.5t20.5 -51.5q0 -10 -17 -75l-135 -541q0 -4 -2 -13t-3 -16.5t-1 -13.5q0 -31 22.5 -51.5t48.5 -20.5q37 0 59.5 42t35 92.5t20.5 58.5q12 10 41 10h66q47 0 47 -29q0 -35 -51 -145 q-96 -184 -241.5 -184t-209.5 116q-154 -117 -311 -116q-145 0 -234.5 88t-89.5 246zM449 319q0 -94 47 -135t118 -41q104 0 194.5 84t123.5 213q37 139 37 174q0 119 -52.5 164t-121.5 45q-96 0 -169 -60.5t-109 -149.5t-52 -165t-16 -129z" />
<glyph unicode="&#xe3;" d="M559 1253.5q0 20.5 27 42.5q4 4 31 28l48 40q19 16 53 41t60.5 40t58 26.5t56.5 11.5q39 0 66.5 -19.5t41 -43t33 -43t41.5 -19.5q18 0 51 16q35 18 72 46l59 44q23 16 37 17q23 0 51.5 -34t28.5 -54q0 -16 -28 -45l-39 -33q-37 -33 -60.5 -51.5t-63.5 -45t-76 -41 t-67 -14.5q-41 0 -68.5 19.5t-39.5 43t-30.5 43t-43.5 19.5q-23 0 -53 -16q-35 -18 -72 -46l-58 -44q-22 -16 -36 -17q-23 0 -51.5 34t-28.5 54.5zM262 322q0 145 62.5 292.5t195.5 256t303 108.5q129 0 228 -84q39 51 90 51q35 0 55.5 -20.5t20.5 -51.5q0 -10 -17 -75 l-135 -541q0 -4 -2 -13t-3 -16.5t-1 -13.5q0 -31 22.5 -51.5t48.5 -20.5q37 0 59.5 42t35 92.5t20.5 58.5q12 10 41 10h66q47 0 47 -29q0 -35 -51 -145q-96 -184 -241.5 -184t-209.5 116q-154 -117 -311 -116q-145 0 -234.5 88t-89.5 246zM449 319q0 -94 47 -135t118 -41 q104 0 194.5 84t123.5 213q37 139 37 174q0 119 -52.5 164t-121.5 45q-96 0 -169 -60.5t-109 -149.5t-52 -165t-16 -129z" />
<glyph unicode="&#xe4;" d="M614 1272q0 57 46.5 103t105.5 46q49 0 78.5 -30.5t29.5 -75.5q0 -55 -46 -102.5t-105 -47.5q-45 0 -77 30t-32 77zM1071 1272q0 55 46 102t108 47q45 0 76.5 -29.5t31.5 -76.5q0 -55 -45 -102.5t-108 -47.5q-45 0 -77 30t-32 77zM262 322q0 145 62.5 292.5t195.5 256 t303 108.5q129 0 228 -84q39 51 90 51q35 0 55.5 -20.5t20.5 -51.5q0 -10 -17 -75l-135 -541q0 -4 -2 -13t-3 -16.5t-1 -13.5q0 -31 22.5 -51.5t48.5 -20.5q37 0 59.5 42t35 92.5t20.5 58.5q12 10 41 10h66q47 0 47 -29q0 -35 -51 -145q-96 -184 -241.5 -184t-209.5 116 q-154 -117 -311 -116q-145 0 -234.5 88t-89.5 246zM449 319q0 -94 47 -135t118 -41q104 0 194.5 84t123.5 213q37 139 37 174q0 119 -52.5 164t-121.5 45q-96 0 -169 -60.5t-109 -149.5t-52 -165t-16 -129z" />
<glyph unicode="&#xe5;" d="M649 1268q0 121 91 225t245 104q96 0 151.5 -49t55.5 -133q0 -123 -91 -226.5t-245 -103.5q-98 0 -152.5 48.5t-54.5 134.5zM778 1274q0 -84 105 -84q82 0 117.5 43t54.5 125q6 25 6 51q0 86 -100 86q-59 0 -100.5 -30.5t-57 -76t-20.5 -72t-5 -42.5zM262 322 q0 145 62.5 292.5t195.5 256t303 108.5q129 0 228 -84q39 51 90 51q35 0 55.5 -20.5t20.5 -51.5q0 -10 -17 -75l-135 -541q0 -4 -2 -13t-3 -16.5t-1 -13.5q0 -31 22.5 -51.5t48.5 -20.5q37 0 59.5 42t35 92.5t20.5 58.5q12 10 41 10h66q47 0 47 -29q0 -35 -51 -145 q-96 -184 -241.5 -184t-209.5 116q-154 -117 -311 -116q-145 0 -234.5 88t-89.5 246zM449 319q0 -94 47 -135t118 -41q104 0 194.5 84t123.5 213q37 139 37 174q0 119 -52.5 164t-121.5 45q-96 0 -169 -60.5t-109 -149.5t-52 -165t-16 -129z" />
<glyph unicode="&#xe6;" horiz-adv-x="1826" d="M266 328q0 158 64.5 304t195.5 246.5t297 100.5q131 0 228 -78q29 76 100 76q74 0 74 -76q0 -6 -2 -10q150 88 315 88q131 0 213 -61.5t82 -159.5q0 -29 -8 -60.5t-34 -79t-88.5 -89.5t-156.5 -64q-125 -29 -338 -29h-28q-12 0 -35 -1t-33 -1q0 -8 -2 -24.5t-3 -28.5 t-1 -25q0 -213 233 -213q78 0 141.5 17.5t94.5 37t54.5 37t31.5 17.5q18 0 55 -40t37 -56q0 -10 -17.5 -30t-55.5 -43.5t-87 -45t-122.5 -35.5t-153.5 -14q-268 0 -350 192q-174 -193 -381 -192q-125 0 -222.5 81t-97.5 259zM451 326q0 -94 47 -138.5t118 -44.5 q86 0 155 48.5t105.5 114t61.5 143t32 127t7 73.5q0 174 -178 174q-111 0 -185 -67q-82 -70 -122.5 -205t-40.5 -225zM1155 590h10q244 0 370 29.5t126 113.5q0 41 -41 65.5t-107 24.5q-123 0 -217 -58t-141 -175z" />
<glyph unicode="&#xe7;" horiz-adv-x="1171" d="M266 342q0 109 42 220.5t119 204.5t197.5 152.5t262.5 59.5q125 0 202.5 -54.5t77.5 -142.5q0 -70 -38.5 -105.5t-86.5 -35.5q-35 0 -59.5 21.5t-24.5 56.5q0 33 27 74q-51 31 -123 30q-98 0 -175 -41t-119 -98t-69.5 -128t-35.5 -122t-8 -90q0 -201 239 -201 q109 0 185.5 17.5t106.5 37t52.5 37t34.5 17.5q16 0 54 -40t38 -56q0 -18 -39 -51t-130 -67t-203 -44v-2q100 -53 100 -146q0 -74 -53.5 -136t-161.5 -91q-111 -29 -320 -29h-10q-72 0 -72 45q0 14 11 52q8 37 21.5 48t47.5 11h9q346 0 346 82q0 33 -76 44t-84 22 q-6 12 -6 28q0 12 14 74q-141 25 -217 115t-76 231z" />
<glyph unicode="&#xe8;" horiz-adv-x="1171" d="M270 354q0 254 174 439.5t441 185.5q129 0 211 -61.5t82 -159.5q0 -100 -74 -183q-131 -139 -555 -139h-17q-12 0 -34.5 -1t-32.5 -1q-6 -41 -6 -82q0 -209 237 -209q104 0 181 17.5t108 37t53.5 37t32.5 17.5q18 0 55 -41t37 -55q0 -10 -16.5 -30t-55 -44.5t-93 -45 t-141.5 -34.5t-189 -14q-113 0 -195 32.5t-124 90t-60.5 116.5t-18.5 127zM506 590h16q238 0 361 29.5t123 113.5q0 41 -40 65.5t-106 24.5q-254 0 -354 -233zM584 1362q0 37 30.5 68.5t69.5 31.5q29 0 88 -41l123 -84q90 -61 105.5 -74.5t15.5 -29.5q0 -18 -38 -65.5 t-60 -47.5q-16 0 -82 41q-207 129 -224 144q-28 24 -28 57z" />
<glyph unicode="&#xe9;" horiz-adv-x="1171" d="M768 1231q0 10 3 17t11 14l13 9q4 3 14 9t12 6l128 64l99 51l65.5 33.5t49 21.5t29.5 6q33 0 54.5 -23.5t21.5 -54.5q0 -61 -80 -100q-340 -164 -357 -164q-23 0 -39 28t-20 56zM270 354q0 254 174 439.5t441 185.5q129 0 211 -61.5t82 -159.5q0 -100 -74 -183 q-131 -139 -555 -139h-17q-12 0 -34.5 -1t-32.5 -1q-6 -41 -6 -82q0 -209 237 -209q104 0 181 17.5t108 37t53.5 37t32.5 17.5q18 0 55 -41t37 -55q0 -10 -16.5 -30t-55 -44.5t-93 -45t-141.5 -34.5t-189 -14q-113 0 -195 32.5t-124 90t-60.5 116.5t-18.5 127zM506 590h16 q238 0 361 29.5t123 113.5q0 41 -40 65.5t-106 24.5q-254 0 -354 -233z" />
<glyph unicode="&#xea;" horiz-adv-x="1171" d="M553 1300q0 10 3 17.5t13.5 16.5t17.5 13.5l25.5 16.5l28.5 18l150 95q162 102 180 102h2q23 0 262 -227q33 -29 33 -49.5t-42 -62.5t-65 -42q-16 0 -38.5 20.5t-78 79t-100.5 101.5h-4q-35 -29 -266 -180q-31 -23 -47 -23q-27 0 -50.5 43t-23.5 61zM270 354 q0 254 174 439.5t441 185.5q129 0 211 -61.5t82 -159.5q0 -100 -74 -183q-131 -139 -555 -139h-17q-12 0 -34.5 -1t-32.5 -1q-6 -41 -6 -82q0 -209 237 -209q104 0 181 17.5t108 37t53.5 37t32.5 17.5q18 0 55 -41t37 -55q0 -10 -16.5 -30t-55 -44.5t-93 -45t-141.5 -34.5 t-189 -14q-113 0 -195 32.5t-124 90t-60.5 116.5t-18.5 127zM506 590h16q238 0 361 29.5t123 113.5q0 41 -40 65.5t-106 24.5q-254 0 -354 -233z" />
<glyph unicode="&#xeb;" horiz-adv-x="1171" d="M549 1272q0 57 46 103t105 46q49 0 79 -30.5t30 -75.5q0 -55 -45 -102.5t-107 -47.5q-45 0 -76.5 30t-31.5 77zM1008 1274q0 55 46 101t105 46q47 0 78 -30.5t31 -75.5q0 -57 -46 -103.5t-108 -46.5q-45 0 -75.5 30t-30.5 79zM270 354q0 254 174 439.5t441 185.5 q129 0 211 -61.5t82 -159.5q0 -100 -74 -183q-131 -139 -555 -139h-17q-12 0 -34.5 -1t-32.5 -1q-6 -41 -6 -82q0 -209 237 -209q104 0 181 17.5t108 37t53.5 37t32.5 17.5q18 0 55 -41t37 -55q0 -10 -16.5 -30t-55 -44.5t-93 -45t-141.5 -34.5t-189 -14q-113 0 -195 32.5 t-124 90t-60.5 116.5t-18.5 127zM506 590h16q238 0 361 29.5t123 113.5q0 41 -40 65.5t-106 24.5q-254 0 -354 -233z" />
<glyph unicode="&#xec;" horiz-adv-x="780" d="M141 651q0 25 24.5 76t66.5 108.5t113 100.5t151 43q88 0 147 -51t59 -133v-15q0 -31 -103 -293t-103 -288q0 -25 16 -40.5t39 -15.5q49 0 92 50.5t64 117.5q14 35 51 35h78q39 0 38 -29q0 -27 -24.5 -78t-66.5 -109t-113.5 -100t-149.5 -42q-88 0 -147.5 51t-59.5 133 q0 45 25 102q180 479 182 494q0 23 -15.5 39t-39.5 16q-41 0 -81 -39t-62 -96q-4 -10 -9.5 -25.5t-7.5 -19.5t-8 -11t-14.5 -8t-22.5 -1h-80q-39 -1 -39 28zM387 1362q0 37 31 68.5t69 31.5q29 0 88 -41l123 -84q90 -61 105.5 -74.5t15.5 -29.5q0 -18 -38 -65.5t-60 -47.5 q-16 0 -82 41q-207 129 -223 144q-29 24 -29 57z" />
<glyph unicode="&#xed;" horiz-adv-x="780" d="M141 651q0 25 24.5 76t66.5 108.5t113 100.5t151 43q88 0 147 -51t59 -133v-15q0 -31 -103 -293t-103 -288q0 -25 16 -40.5t39 -15.5q49 0 92 50.5t64 117.5q14 35 51 35h78q39 0 38 -29q0 -27 -24.5 -78t-66.5 -109t-113.5 -100t-149.5 -42q-88 0 -147.5 51t-59.5 133 q0 45 25 102q180 479 182 494q0 23 -15.5 39t-39.5 16q-41 0 -81 -39t-62 -96q-4 -10 -9.5 -25.5t-7.5 -19.5t-8 -11t-14.5 -8t-22.5 -1h-80q-39 -1 -39 28zM571 1231q0 10 3.5 17t11.5 14l12 9q4 3 14.5 9t12.5 6l128 64l98 51l65.5 33.5t49 21.5t29.5 6q33 0 54.5 -23.5 t21.5 -54.5q0 -61 -80 -100q-340 -164 -356 -164q-23 0 -39 28t-21 56z" />
<glyph unicode="&#xee;" horiz-adv-x="780" d="M274 1300q0 10 4.5 18.5t14.5 16.5l17 13.5t25.5 16.5t26.5 17q311 193 328 197h4q20 0 260 -225q33 -33 33 -51q0 -20 -42 -62.5t-64 -42.5q-4 0 -8.5 1t-9.5 3t-9 5t-11 9.5t-13 11.5l-16 16l-19 20l-24 24l-28 29l-79 82h-2l-67 -45l-118 -80l-84 -57q-37 -20 -47 -21 q-25 0 -48.5 43t-23.5 61zM141 651q0 25 24.5 76t66.5 108.5t113 100.5t151 43q88 0 147 -51t59 -133v-15q0 -31 -103 -293t-103 -288q0 -25 16 -40.5t39 -15.5q49 0 92 50.5t64 117.5q14 35 51 35h78q39 0 38 -29q0 -27 -24.5 -78t-66.5 -109t-113.5 -100t-149.5 -42 q-88 0 -147.5 51t-59.5 133q0 45 25 102q180 479 182 494q0 23 -15.5 39t-39.5 16q-41 0 -81 -39t-62 -96q-4 -10 -9.5 -25.5t-7.5 -19.5t-8 -11t-14.5 -8t-22.5 -1h-80q-39 -1 -39 28z" />
<glyph unicode="&#xef;" horiz-adv-x="780" d="M352 1272q0 57 46 103t106 46q47 0 77.5 -30.5t30.5 -75.5q0 -55 -46 -102.5t-105 -47.5q-45 0 -77 30t-32 77zM809 1272q0 57 46 103t106 46q45 0 76.5 -29.5t31.5 -76.5q0 -61 -48 -105.5t-103 -44.5q-45 0 -77 30t-32 77zM141 651q0 25 24.5 76t66.5 108.5t113 100.5 t151 43q88 0 147 -51t59 -133v-15q0 -31 -103 -293t-103 -288q0 -25 16 -40.5t39 -15.5q49 0 92 50.5t64 117.5q14 35 51 35h78q39 0 38 -29q0 -27 -24.5 -78t-66.5 -109t-113.5 -100t-149.5 -42q-88 0 -147.5 51t-59.5 133q0 45 25 102q180 479 182 494q0 23 -15.5 39 t-39.5 16q-41 0 -81 -39t-62 -96q-4 -10 -9.5 -25.5t-7.5 -19.5t-8 -11t-14.5 -8t-22.5 -1h-80q-39 -1 -39 28z" />
<glyph unicode="&#xf0;" d="M231 338q0 102 42 211.5t121 209t210 163t291 63.5q141 0 248 -63q-33 137 -135 245l-142 -67l-43 137l47 25v2q-139 57 -268 57q-31 0 -45 -2v2l50 36l39 27l26.5 18.5t24 13.5t18.5 5t22 2q150 0 303 -77l150 75l45 -137l-61 -31v-2q176 -166 176 -434 q0 -74 -20.5 -176t-41.5 -170l-20 -65q-72 -195 -239 -306.5t-380 -111.5q-190 0 -304 90t-114 260zM426 371q0 -217 262 -217q104 0 184 35.5t125 87t74 118t38 118.5t9 97q0 221 -260 221q-109 0 -190.5 -37.5t-125.5 -91t-72 -122t-36 -118.5t-8 -91z" />
<glyph unicode="&#xf1;" horiz-adv-x="1433" d="M639 1253.5q0 20.5 27 42.5q4 4 31 28l47 40q19 16 53 41t61 40t58.5 26.5t56.5 11.5q39 0 66.5 -19.5t41 -43t33 -43t41.5 -19.5q18 0 51 16q35 18 72 46l59 44q23 16 37 17q23 0 51.5 -34t28.5 -54q0 -16 -29 -45l-36 -33l-63 -51q-24 -18 -63.5 -45t-75.5 -41.5 t-67 -14.5q-41 0 -68.5 19.5t-40 43t-30.5 43t-43 19.5q-23 0 -53 -16q-35 -18 -72 -46l-58 -44q-22 -16 -36 -17q-23 0 -51.5 34t-28.5 54.5zM141 651.5q0 28.5 29 91.5q98 236 264 236q76 0 142.5 -42t85.5 -128q164 170 360 170q119 0 200 -53.5t81 -180.5 q0 -106 -76 -321t-76 -225q0 -25 15.5 -40.5t39.5 -15.5q45 0 88 46.5t68 119.5q8 27 20.5 32t59.5 5h26q59 0 60 -29q0 -25 -24.5 -76t-65.5 -108t-112 -100t-150 -43q-90 0 -149.5 50t-59.5 132q0 37 77.5 248t77.5 291q0 113 -131 112q-106 0 -193 -70.5t-139.5 -180 t-87 -213t-56 -198.5t-28.5 -108q-29 -63 -96 -63q-31 0 -52.5 19.5t-21.5 49.5q0 23 7 43l151 609q6 23 6 41q0 33 -22.5 52t-48.5 19q-49 0 -81 -96t-36 -98q-8 -6 -39 -6h-61q-52 0 -52 28.5z" />
<glyph unicode="&#xf2;" d="M266 342q0 104 40 213t114 205t197.5 157.5t273.5 61.5q176 0 280.5 -93t104.5 -261q0 -150 -69.5 -292.5t-216 -243.5t-337.5 -101q-178 0 -282.5 94t-104.5 260zM455 344q0 -201 227 -201q115 0 200 53.5t127 135.5t61.5 155.5t19.5 135.5q0 203 -228 202 q-96 0 -172 -38.5t-119 -94t-70.5 -125t-36.5 -124t-9 -99.5zM651 1362q0 37 31 68.5t70 31.5q29 0 88 -41l123 -84q90 -61 105 -74.5t15 -29.5q0 -18 -37.5 -65.5t-60.5 -47.5q-14 0 -82 41q-207 129 -223 144q-29 24 -29 57z" />
<glyph unicode="&#xf3;" d="M834 1231q0 10 3 17t11 14l12 9q4 3 14.5 9t12.5 6l128 64l98 51l65.5 33.5t49 21.5t29.5 6q33 0 54.5 -23.5t21.5 -54.5q0 -61 -80 -100q-340 -164 -356 -164q-23 0 -39 28t-20 56zM266 342q0 104 40 213t114 205t197.5 157.5t273.5 61.5q176 0 280.5 -93t104.5 -261 q0 -150 -69.5 -292.5t-216 -243.5t-337.5 -101q-178 0 -282.5 94t-104.5 260zM455 344q0 -201 227 -201q115 0 200 53.5t127 135.5t61.5 155.5t19.5 135.5q0 203 -228 202q-96 0 -172 -38.5t-119 -94t-70.5 -125t-36.5 -124t-9 -99.5z" />
<glyph unicode="&#xf4;" d="M618 1300q0 10 3.5 17.5t13.5 16.5t17 13.5l25.5 16.5t29.5 18l149 95q162 102 180 102h2q20 0 262 -227q33 -29 33 -49.5t-42 -62.5t-64 -42q-16 0 -37 17.5t-78 77.5l-102 106h-4q-33 -27 -269 -182q-31 -20 -45 -21q-27 0 -50.5 43t-23.5 61zM266 342q0 104 40 213 t114 205t197.5 157.5t273.5 61.5q176 0 280.5 -93t104.5 -261q0 -150 -69.5 -292.5t-216 -243.5t-337.5 -101q-178 0 -282.5 94t-104.5 260zM455 344q0 -201 227 -201q115 0 200 53.5t127 135.5t61.5 155.5t19.5 135.5q0 203 -228 202q-96 0 -172 -38.5t-119 -94t-70.5 -125 t-36.5 -124t-9 -99.5z" />
<glyph unicode="&#xf5;" d="M573 1253.5q0 20.5 27 42.5q4 4 32 28l47 40q19 16 53 41t60.5 40t58.5 26.5t56 11.5q39 0 66.5 -19.5t41 -43t33 -43t42.5 -19.5q18 0 51 16q35 18 71 46l60 44q23 16 37 17q23 0 51.5 -34t28.5 -54q0 -16 -29 -45l-37 -33l-62 -51q-24 -18 -64 -45t-76 -41.5t-66 -14.5 q-41 0 -69 19.5t-40 43t-30.5 43t-43.5 19.5q-23 0 -53 -16q-35 -18 -71 -46l-59 -44q-22 -16 -36 -17q-23 0 -51.5 34t-28.5 54.5zM266 342q0 104 40 213t114 205t197.5 157.5t273.5 61.5q176 0 280.5 -93t104.5 -261q0 -150 -69.5 -292.5t-216 -243.5t-337.5 -101 q-178 0 -282.5 94t-104.5 260zM455 344q0 -201 227 -201q115 0 200 53.5t127 135.5t61.5 155.5t19.5 135.5q0 203 -228 202q-96 0 -172 -38.5t-119 -94t-70.5 -125t-36.5 -124t-9 -99.5z" />
<glyph unicode="&#xf6;" d="M614 1272q0 55 46.5 102t105.5 47q49 0 78.5 -30.5t29.5 -75.5q0 -57 -46 -103.5t-105 -46.5q-45 0 -77 30t-32 77zM1073 1272q0 57 46 103t106 46q45 0 76.5 -29.5t31.5 -76.5q0 -55 -45 -102.5t-108 -47.5q-45 0 -76 30t-31 77zM266 342q0 104 40 213t114 205 t197.5 157.5t273.5 61.5q176 0 280.5 -93t104.5 -261q0 -150 -69.5 -292.5t-216 -243.5t-337.5 -101q-178 0 -282.5 94t-104.5 260zM455 344q0 -201 227 -201q115 0 200 53.5t127 135.5t61.5 155.5t19.5 135.5q0 203 -228 202q-96 0 -172 -38.5t-119 -94t-70.5 -125 t-36.5 -124t-9 -99.5z" />
<glyph unicode="&#xf7;" horiz-adv-x="1957" d="M322 512q0 20 15 37.5t38 21.5q8 2 51 2h1372q27 0 41 -2q20 -4 34.5 -21.5t14.5 -37.5q0 -61 -84 -61h-1403q-79 0 -79 61zM801 -45q0 74 60.5 133t135.5 59q61 0 102.5 -39.5t41.5 -103.5q0 -74 -59.5 -133t-135.5 -59q-61 0 -103 40t-42 103zM1067 1020q0 74 60.5 132 t136.5 58q61 0 102 -40t41 -101q0 -74 -58.5 -133t-136.5 -59q-61 0 -103 40t-42 103z" />
<glyph unicode="&#xf8;" d="M143 -180q0 14 23.5 45t78 94.5t93.5 114.5q-66 84 -66 231q0 121 43 247t120 234.5t199 177t267 68.5q102 0 193 -43q176 217 192 228q8 6 21 6q20 0 56 -27t36 -49q0 -12 -20.5 -40t-174.5 -212q66 -98 66 -231q0 -123 -43 -250t-121 -234.5t-200 -176.5t-265 -69 q-100 0 -192 43l-81 -98q-71 -86 -81 -100q-35 -35 -51 -35q-18 0 -55.5 25.5t-37.5 50.5zM438 315q0 -43 17 -100l530 645q-55 18 -108 19h-3q-121 0 -213 -67t-137 -164t-65.5 -183.5t-20.5 -149.5zM557 109q47 -20 107 -21q125 0 218 67.5t138 167t64.5 183.5t19.5 145 q0 47 -17 103z" />
<glyph unicode="&#xf9;" horiz-adv-x="1368" d="M141 651q0 25 24.5 76t66.5 108.5t114 100.5t152 43q88 0 147.5 -51t59.5 -133q0 -39 -73 -229.5t-73 -286.5q0 -135 150 -136q111 0 188.5 106.5t110.5 239.5q102 403 108 414q29 63 94 64q33 0 54.5 -19.5t21.5 -52.5q0 -10 -10 -51l-146 -584q-8 -33 -8 -45 q0 -31 22.5 -51.5t51.5 -20.5q35 0 57.5 43t36 93.5t21.5 58.5q12 8 41 8h63q49 0 49 -31q0 -35 -30.5 -107.5t-103.5 -146t-159 -73.5q-150 0 -213 121q-72 -61 -133 -91t-149 -30q-299 0 -299 256q0 88 36 205.5t71.5 206.5t35.5 112q0 25 -15.5 40t-37.5 15 q-47 0 -89 -46t-67 -115q-8 -27 -19 -33t-36 -6h-55q-33 0 -46.5 5t-13.5 23zM682 1362q0 37 30.5 68.5t69.5 31.5q29 0 88 -41l105 -71q104 -70 121.5 -85.5t17.5 -31.5q0 -20 -37 -66.5t-61 -46.5q-18 0 -281 164l-6 4q-8 4 -11 7t-9.5 8.5t-10.5 11.5t-8 13t-6 15.5 t-2 18.5z" />
<glyph unicode="&#xfa;" horiz-adv-x="1368" d="M141 651q0 25 24.5 76t66.5 108.5t114 100.5t152 43q88 0 147.5 -51t59.5 -133q0 -39 -73 -229.5t-73 -286.5q0 -135 150 -136q111 0 188.5 106.5t110.5 239.5q102 403 108 414q29 63 94 64q33 0 54.5 -19.5t21.5 -52.5q0 -10 -10 -51l-146 -584q-8 -33 -8 -45 q0 -31 22.5 -51.5t51.5 -20.5q35 0 57.5 43t36 93.5t21.5 58.5q12 8 41 8h63q49 0 49 -31q0 -35 -30.5 -107.5t-103.5 -146t-159 -73.5q-150 0 -213 121q-72 -61 -133 -91t-149 -30q-299 0 -299 256q0 88 36 205.5t71.5 206.5t35.5 112q0 25 -15.5 40t-37.5 15 q-47 0 -89 -46t-67 -115q-8 -27 -19 -33t-36 -6h-55q-33 0 -46.5 5t-13.5 23zM866 1231q0 31 54 55l127 64l98 50l66 34q32 16 49.5 22t29.5 6q35 0 56.5 -23.5t21.5 -54.5q0 -61 -82 -100q-342 -164 -358 -164q-23 0 -38.5 28t-19.5 56z" />
<glyph unicode="&#xfb;" horiz-adv-x="1368" d="M141 651q0 25 24.5 76t66.5 108.5t114 100.5t152 43q88 0 147.5 -51t59.5 -133q0 -39 -73 -229.5t-73 -286.5q0 -135 150 -136q111 0 188.5 106.5t110.5 239.5q102 403 108 414q29 63 94 64q33 0 54.5 -19.5t21.5 -52.5q0 -10 -10 -51l-146 -584q-8 -33 -8 -45 q0 -31 22.5 -51.5t51.5 -20.5q35 0 57.5 43t36 93.5t21.5 58.5q12 8 41 8h63q49 0 49 -31q0 -35 -30.5 -107.5t-103.5 -146t-159 -73.5q-150 0 -213 121q-72 -61 -133 -91t-149 -30q-299 0 -299 256q0 88 36 205.5t71.5 206.5t35.5 112q0 25 -15.5 40t-37.5 15 q-47 0 -89 -46t-67 -115q-8 -27 -19 -33t-36 -6h-55q-33 0 -46.5 5t-13.5 23zM649 1300q0 10 4 17.5t13.5 15.5l17.5 14.5t27 17.5l28 17q301 188 316 195q6 2 12 2h4q18 0 262 -227q33 -33 33 -49q0 -23 -43 -64t-66 -41q-16 0 -39.5 20.5t-79 80t-98.5 100.5h-2 q-41 -33 -268 -180q-31 -23 -47 -23q-25 0 -49.5 43t-24.5 61z" />
<glyph unicode="&#xfc;" horiz-adv-x="1368" d="M141 651q0 25 24.5 76t66.5 108.5t114 100.5t152 43q88 0 147.5 -51t59.5 -133q0 -39 -73 -229.5t-73 -286.5q0 -135 150 -136q111 0 188.5 106.5t110.5 239.5q102 403 108 414q29 63 94 64q33 0 54.5 -19.5t21.5 -52.5q0 -10 -10 -51l-146 -584q-8 -33 -8 -45 q0 -31 22.5 -51.5t51.5 -20.5q35 0 57.5 43t36 93.5t21.5 58.5q12 8 41 8h63q49 0 49 -31q0 -35 -30.5 -107.5t-103.5 -146t-159 -73.5q-150 0 -213 121q-72 -61 -133 -91t-149 -30q-299 0 -299 256q0 88 36 205.5t71.5 206.5t35.5 112q0 25 -15.5 40t-37.5 15 q-47 0 -89 -46t-67 -115q-8 -27 -19 -33t-36 -6h-55q-33 0 -46.5 5t-13.5 23zM647 1274q0 57 45 102t107 45q49 0 78.5 -30.5t29.5 -75.5q0 -55 -45 -102.5t-108 -47.5q-45 0 -76 30t-31 79zM1104 1274q0 55 46 101t105 46q45 0 77 -29.5t32 -76.5q0 -55 -45 -102.5 t-107 -47.5q-45 0 -76.5 31t-31.5 78z" />
<glyph unicode="&#xfd;" horiz-adv-x="1236" d="M141 651q0 27 26 78t67.5 108.5t112.5 99.5t147 42q92 0 151.5 -51t59.5 -133q0 -41 -73 -232.5t-73 -283.5q0 -135 150 -136q94 0 177 93.5t124 252.5q104 412 108 420q33 57 92 58q31 0 53.5 -20.5t22.5 -51.5q0 -12 -4 -33l-6 -20l-199 -795q-10 -41 -16 -63.5 t-29.5 -75.5t-53.5 -91t-85 -85t-125 -82q-125 -59 -248 -60q-115 0 -184.5 48.5t-69.5 128.5q0 57 36 95t87 38q37 0 60.5 -21.5t23.5 -56.5q0 -27 -18 -64q39 -14 88 -14q111 0 206 68.5t130 167.5q8 25 22 81q-117 -74 -225 -73q-127 0 -213 58t-86 198q0 119 71.5 314.5 t71.5 209.5q0 25 -15.5 40t-37.5 15q-47 0 -90 -48t-68 -120q-8 -20 -17 -26t-32 -6h-67q-52 -1 -52 28zM801 1231q0 10 3 17t11 14l12 9q4 3 14.5 9t12.5 6l128 64l98 51l66 33.5t49 21.5t30 6q33 0 54 -23.5t21 -54.5q0 -61 -79 -100q-340 -164 -357 -164q-23 0 -39 28 t-20 56z" />
<glyph unicode="&#xfe;" horiz-adv-x="1308" d="M57 -352q8 86 39 104q10 6 51 6h93l370 1483q-18 2 -44.5 2t-41 1t-30 5t-22.5 13.5t-7 26t10 51t21 44.5q8 10 71 19q121 18 203 18q45 0 45 -41q0 -16 -19 -95l-52 -203q-32 -124 -50 -201q188 98 365 98q125 0 187.5 -84t62.5 -217q0 -158 -62.5 -313.5t-190.5 -266 t-290 -110.5q-168 0 -260 110l-86 -340h84q59 0 59 -43q-10 -86 -39 -102q-14 -8 -35 -8h-83q-27 0 -47.5 -1t-36.5 -1h-35q-29 0 -49.5 1t-40.5 1h-84q-56 0 -56 43zM571 338q0 -74 36 -134.5t120 -60.5q109 0 190.5 56.5t121.5 142.5t58.5 162t18.5 139q0 180 -184 180 q-92 0 -175 -56t-114 -120q-8 -18 -40 -146t-32 -163z" />
<glyph unicode="&#xff;" horiz-adv-x="1236" d="M141 651q0 27 26 78t67.5 108.5t112.5 99.5t147 42q92 0 151.5 -51t59.5 -133q0 -41 -73 -232.5t-73 -283.5q0 -135 150 -136q94 0 177 93.5t124 252.5q104 412 108 420q33 57 92 58q31 0 53.5 -20.5t22.5 -51.5q0 -12 -4 -33l-6 -20l-199 -795q-10 -41 -16 -63.5 t-29.5 -75.5t-53.5 -91t-85 -85t-125 -82q-125 -59 -248 -60q-115 0 -184.5 48.5t-69.5 128.5q0 57 36 95t87 38q37 0 60.5 -21.5t23.5 -56.5q0 -27 -18 -64q39 -14 88 -14q111 0 206 68.5t130 167.5q8 25 22 81q-117 -74 -225 -73q-127 0 -213 58t-86 198q0 119 71.5 314.5 t71.5 209.5q0 25 -15.5 40t-37.5 15q-47 0 -90 -48t-68 -120q-8 -20 -17 -26t-32 -6h-67q-52 -1 -52 28zM582 1272q0 57 46 103t105 46q49 0 79 -30.5t30 -75.5q0 -57 -46 -103.5t-108 -46.5q-45 0 -75.5 30t-30.5 77zM1038 1272q0 57 46 103t106 46q49 0 78.5 -30.5 t29.5 -75.5q0 -57 -46 -103.5t-105 -46.5q-45 0 -77 30t-32 77z" />
<glyph unicode="&#x152;" horiz-adv-x="2496" d="M358 504q0 121 39 249t121 251.5t196.5 222t280.5 159t357 60.5q59 0 177 -12.5t228 -12.5h778q59 0 60 -47q0 -8 -11 -99l-22 -181l-10 -88q-4 -25 -13.5 -37.5t-19.5 -15.5t-33 -5h-45q-57 0 -57 51q0 12 9 82t9 131q0 29 -2 43q-82 12 -284 13h-355l-112 -453h231 q184 0 209 8q20 8 40.5 84t35.5 88q12 10 39 11h45q61 0 61 -43q0 -10 -53 -224.5t-55 -216.5q-8 -35 -22.5 -44t-43.5 -9h-49q-51 2 -51 43q0 16 10 64.5t14 78.5q-66 6 -200 7h-250v-3l-125 -505h276q162 0 242 1t122 10t47 15t19 29q45 78 76 150.5t41 102.5t27.5 47 t50.5 17h37q63 0 63 -41q0 -31 -180 -438q-12 -31 -26.5 -39t-43.5 -8h-890q-59 0 -179 -11.5t-184 -11.5q-276 0 -450.5 133.5t-174.5 393.5zM559 557q0 -205 126 -315.5t351 -110.5q162 0 222.5 63.5t113.5 278.5l131 520q25 98 25 166q0 74 -43 102.5t-158 28.5 q-184 0 -334.5 -65.5t-243 -172t-141.5 -234.5t-49 -261z" />
<glyph unicode="&#x153;" horiz-adv-x="1826" d="M256 289q0 160 65.5 326.5t203 291.5t311.5 125q94 0 175 -48t117 -161q184 156 410 156q129 0 211 -61.5t82 -159.5q0 -123 -102 -209q-139 -113 -531 -113h-18q-12 0 -35 -1t-33 -1q-6 -41 -6 -78q0 -213 233 -213q82 0 144.5 17.5t90.5 37.5l51 36q24 17 36 18 q18 0 55 -40t37 -54q0 -12 -17.5 -32t-54 -43.5t-87 -45t-125 -35.5t-158.5 -14q-240 0 -336 170h-2q-68 -92 -155 -146.5t-140 -66t-100 -11.5q-156 0 -239 97.5t-83 257.5zM440 281q0 -98 46 -145.5t114 -47.5q84 0 152.5 52.5t108.5 127t66.5 161.5t36 150.5t9.5 102.5 q0 111 -49.5 154t-114.5 43q-102 0 -180 -77t-116 -186.5t-55.5 -196.5t-17.5 -138zM1155 590h12q242 0 367 29.5t125 113.5q0 41 -40 65.5t-108 24.5q-262 0 -356 -233z" />
<glyph unicode="&#x178;" horiz-adv-x="1859" d="M985 1649q0 55 47 101t107 46q47 0 77.5 -30.5t30.5 -75.5q0 -55 -46 -101.5t-107 -46.5q-45 0 -77 30t-32 77zM1444 1649q0 55 46 101t105 46q49 0 79 -30.5t30 -75.5q0 -55 -46 -101.5t-106 -46.5q-45 0 -76.5 30t-31.5 77zM434 1311q0 33 19 82q12 29 59 28h377 q55 0 55 -43q0 -14 -9 -51t-26 -49q-12 -10 -53 -10l266 -525l531 525q-49 2 -49 45q0 10 10 47q10 39 22.5 50t44.5 11h355q57 0 57 -43q0 -16 -10 -54t-27 -48q-12 -8 -59 -8q-100 0 -118.5 -5.5t-51.5 -37.5l-633 -627l-6 -6q-20 -23 -37 -78l-25 -96l-65 -264h82 q66 0 65 -43q-10 -88 -39 -105q-12 -6 -39 -6h-385q-59 0 -59 43q0 16 11.5 54t25.5 48q12 8 51 9h98l105 415l-356 699h-125q-62 0 -62 43z" />
<glyph unicode="&#x2c6;" horiz-adv-x="1177" d="M559 1313q0 10 3 17t13.5 15.5t17.5 13.5t25 16l29 18q315 195 330 198h2q20 0 262 -227q33 -29 33 -49.5t-43 -63.5t-64 -43q-16 0 -39.5 21.5t-78 79t-99.5 100.5h-4q-53 -39 -266 -180q-37 -20 -47 -21q-27 0 -50.5 43.5t-23.5 61.5z" />
<glyph unicode="&#x2dc;" d="M557 1191.5q0 20.5 27 43.5q4 4 31 28l48 40q19 16 53 40.5t60.5 40t58 26.5t56.5 11q39 0 66.5 -19.5t41 -43t33 -43t41.5 -19.5q18 0 51 17q35 18 72 46l59 44q23 16 37 16q23 0 51.5 -33.5t28.5 -54.5q0 -16 -29 -45l-36 -33l-63 -51q-24 -18 -63.5 -45t-75.5 -41 t-67 -14q-41 0 -68.5 19.5t-39.5 43t-30.5 43t-43.5 19.5q-23 0 -53 -17q-35 -18 -72 -46l-58 -44q-22 -16 -36 -16q-23 0 -51.5 33.5t-28.5 54z" />
<glyph unicode="&#x2000;" horiz-adv-x="1021" />
<glyph unicode="&#x2001;" horiz-adv-x="2045" />
<glyph unicode="&#x2002;" horiz-adv-x="1021" />
<glyph unicode="&#x2003;" horiz-adv-x="2045" />
<glyph unicode="&#x2004;" horiz-adv-x="681" />
<glyph unicode="&#x2005;" horiz-adv-x="509" />
<glyph unicode="&#x2006;" horiz-adv-x="339" />
<glyph unicode="&#x2007;" horiz-adv-x="339" />
<glyph unicode="&#x2008;" horiz-adv-x="253" />
<glyph unicode="&#x2009;" horiz-adv-x="407" />
<glyph unicode="&#x200a;" horiz-adv-x="112" />
<glyph unicode="&#x2010;" horiz-adv-x="909" d="M199 440q0 8 10 51.5t16 55.5q16 25 54 24h509q57 0 58 -45q0 -10 -15 -63q-4 -20 -6 -27.5t-9 -20t-19.5 -16.5t-32.5 -4h-506q-59 0 -59 45z" />
<glyph unicode="&#x2011;" horiz-adv-x="909" d="M199 440q0 8 10 51.5t16 55.5q16 25 54 24h509q57 0 58 -45q0 -10 -15 -63q-4 -20 -6 -27.5t-9 -20t-19.5 -16.5t-32.5 -4h-506q-59 0 -59 45z" />
<glyph unicode="&#x2012;" horiz-adv-x="909" d="M199 440q0 8 10 51.5t16 55.5q16 25 54 24h509q57 0 58 -45q0 -10 -15 -63q-4 -20 -6 -27.5t-9 -20t-19.5 -16.5t-32.5 -4h-506q-59 0 -59 45z" />
<glyph unicode="&#x2013;" d="M203 565q0 12 8 44t16 44q12 23 54 23h1052q61 0 62 -45q0 -16 -9 -37q-2 -4 -4 -13.5t-3 -12.5t-3 -10t-3 -10t-4 -8t-6 -7.5t-7 -5.5t-9.5 -4t-12.5 -2t-15 -1h-1055q-61 0 -61 45z" />
<glyph unicode="&#x2014;" horiz-adv-x="2605" d="M266 565q0 12 8.5 44t16.5 44q14 23 47 23h2240q57 0 58 -45q0 -14 -9.5 -49t-21.5 -47q-14 -14 -51 -15h-2232q-56 0 -56 45z" />
<glyph unicode="&#x2018;" horiz-adv-x="780" d="M469 920q0 113 64.5 234.5t133 192t97.5 70.5q18 0 48 -40t30 -54q0 -12 -37 -45t-88 -98.5t-78 -155.5q104 -6 104 -100q0 -59 -45 -107.5t-110 -48.5q-47 0 -83 34t-36 118z" />
<glyph unicode="&#x2019;" horiz-adv-x="780" d="M483 866q0 12 24 35l54 50q31 28 67 85.5t58 128.5q-104 6 -104 101q0 59 46 107t109 48q47 0 83 -33.5t36 -117.5q0 -113 -64.5 -235t-134 -192.5t-96.5 -70.5q-16 0 -47 39t-31 55z" />
<glyph unicode="&#x201a;" horiz-adv-x="780" d="M190 -299q0 12 21.5 34.5t51.5 49.5t66 85t58 130q-98 12 -98 100q0 61 47 108.5t108 47.5q113 0 113 -145q0 -88 -39 -185.5t-90 -164t-97 -110.5t-63 -44q-18 0 -48 39t-30 55z" />
<glyph unicode="&#x201c;" horiz-adv-x="909" d="M285 920q0 86 38.5 180t90 161.5t98.5 111.5t68 44q16 0 46.5 -39t30.5 -55q0 -10 -37.5 -44t-89 -101.5t-75.5 -153.5q104 -6 104 -100q0 -59 -45 -107.5t-111 -48.5q-47 0 -82.5 34t-35.5 118zM782 920q0 86 39 180t90.5 161.5t98.5 111.5t67 44q16 0 47 -39t31 -55 q0 -10 -38 -44t-89 -101.5t-76 -153.5q104 -6 105 -100q0 -59 -46 -107.5t-112 -48.5q-45 0 -81 34t-36 118z" />
<glyph unicode="&#x201d;" horiz-adv-x="909" d="M797 868q0 10 36.5 42t87 98.5t78.5 156.5q-104 6 -104 101q0 59 46 107t110 48q47 0 82.5 -33.5t35.5 -117.5q0 -86 -38.5 -180.5t-90 -161t-98.5 -111.5t-68 -45q-18 0 -47.5 40t-29.5 56zM299 866q0 12 24 35l54 50q31 28 66.5 85.5t58.5 128.5q-104 6 -105 101 q0 59 46 107t110 48q47 0 83 -33.5t36 -117.5q0 -113 -64.5 -235t-134.5 -192.5t-96 -70.5q-16 0 -47 39t-31 55z" />
<glyph unicode="&#x201e;" horiz-adv-x="909" d="M8 -299q0 12 23.5 34.5t54.5 49.5t66.5 85t58.5 130q-104 8 -105 100q0 61 47.5 108.5t108.5 47.5q47 0 83 -34t36 -118q0 -113 -64.5 -234.5t-133 -192t-97.5 -70.5q-18 0 -48 39t-30 55zM506 -299q0 10 23 33l55 51q31 29 66.5 86t58.5 129q-104 6 -105 100 q0 63 47 109.5t109 46.5q47 0 83 -34t36 -118q0 -113 -64.5 -234.5t-134.5 -192t-98 -70.5q-16 0 -46 40t-30 54z" />
<glyph unicode="&#x2022;" d="M305 395q0 96 37 194.5t105.5 184.5t181 141.5t250.5 55.5q170 0 272 -91.5t102 -250.5q0 -92 -35.5 -189.5t-103 -185.5t-181.5 -144.5t-253 -56.5q-170 0 -272.5 91t-102.5 251z" />
<glyph unicode="&#x2026;" horiz-adv-x="2340" d="M291 104q0 57 47 104.5t108 47.5q47 0 76 -29.5t29 -72.5q0 -57 -48 -105.5t-108 -48.5q-47 0 -75.5 29.5t-28.5 74.5zM1071 104q0 57 47 104.5t109 47.5q47 0 75.5 -29.5t28.5 -72.5q0 -57 -48 -105.5t-107 -48.5q-47 0 -76 29.5t-29 74.5zM1851 104q0 57 47.5 104.5 t108.5 47.5q47 0 75.5 -29.5t28.5 -72.5q0 -57 -48 -105.5t-107 -48.5q-47 0 -76 29.5t-29 74.5z" />
<glyph unicode="&#x202f;" horiz-adv-x="407" />
<glyph unicode="&#x2039;" horiz-adv-x="1171" d="M455 512q0 14 64.5 59t185 159t227.5 267q20 27 55 27h60q45 0 45 -25q0 -18 -58.5 -98t-169 -194.5t-225.5 -196.5q88 -109 140 -228.5t61 -185.5l8 -65q0 -18 -12.5 -24.5t-44.5 -6.5h-48q-29 0 -38 9t-15 38q-23 111 -63.5 202t-77.5 137l-66 81q-28 35 -28 45z" />
<glyph unicode="&#x203a;" horiz-adv-x="1171" d="M332 25q0 18 57 98t168 194.5t227 198.5v2q-106 123 -157.5 267.5t-51.5 209.5q0 18 11.5 24.5t44.5 6.5q6 0 17 -1t16 -1q4 2 10 2q35 0 43 -9t14 -40q29 -137 87.5 -245.5t103.5 -160t45 -59.5q0 -14 -43 -45q-137 -98 -243 -206.5t-155 -178.5t-55 -74q-12 -8 -37 -8 h-59q-43 0 -43 25z" />
<glyph unicode="&#x205f;" horiz-adv-x="509" />
<glyph unicode="&#x20ac;" horiz-adv-x="1826" d="M193 512q0 12 31.5 59t37.5 54q20 25 55 24h267q8 59 28 125h-301q-47 0 -47 23q0 14 29 55q43 63 54 73.5t44 10.5h260q23 0 31 5t25 28q125 199 334.5 325.5t435.5 126.5q80 0 154.5 -18.5t123.5 -46t88 -57t56.5 -53t17.5 -36.5q0 -10 -55 -94q-31 -43 -45 -43 q-10 0 -37 27l-62 59q-35 33 -108.5 59.5t-163.5 26.5q-47 0 -101.5 -10t-134.5 -38t-168 -95.5t-161 -165.5h788q41 -2 41 -22.5t-61 -106.5q-16 -23 -25.5 -28t-34.5 -5h-794q-23 -57 -33 -125h704q49 0 50 -22q0 -18 -60 -101q-18 -29 -30.5 -34t-49.5 -5h-612 q33 -143 140.5 -226t266.5 -83q242 0 478 164q18 12 30 12q18 0 18.5 -18.5t-13 -74.5t-23.5 -68q-8 -12 -33 -29q-233 -164 -493 -164q-225 0 -379 130t-178 357h-336q-49 0 -49 25z" />
<glyph unicode="&#x2122;" horiz-adv-x="1695" d="M236 1458q0 29 22.5 53.5t77.5 24.5h573q109 0 109 -76q0 -31 -22.5 -54.5t-77.5 -23.5h-226v-2q-6 -29 -137 -544q-18 -88 -88 -88q-29 0 -54.5 18t-25.5 61q0 10 34 148l67 271q34 134 34 136h-160q-4 0 -12 -1t-12 -1q-41 0 -66.5 16.5t-30.5 32t-5 29.5zM909 823 q0 18 9 51l151 601q2 14 7 29.5t26.5 33.5t52.5 18q10 0 21 -3l17 -5q7 -2 14 -10t11.5 -12t10.5 -15.5t8 -14.5t8 -16.5t6 -15.5l95 -235q20 25 231 260l12 14q12 14 19 20l18 15q12 10 24.5 14t26.5 4q33 0 57.5 -20t24.5 -55q0 -8 -1 -15.5t-3 -16.5t-2 -15l-154 -609 q-16 -78 -86 -77q-27 0 -53 18t-26 59q0 14 86 359l-52 -58q-74 -84 -97 -103t-54 -19q-43 0 -67.5 36.5t-75.5 173.5l-99 -389q-16 -78 -86 -77q-31 0 -55.5 21t-24.5 54z" />
<glyph unicode="&#xe000;" horiz-adv-x="980" d="M0 980h980v-980h-980v980z" />
<glyph unicode="&#xfb01;" horiz-adv-x="1427" d="M-45 -266q0 53 36 90t87 37q39 0 60.5 -21.5t21.5 -58.5q0 -10 -4 -35q8 0 19 -1t15 -1q45 0 74 44t66 198q18 80 56 286l69 375l28 166h-186q-57 0 -57 43q0 10 14 59q6 29 18.5 40.5t42.5 11.5h195q4 16 11 60t10.5 59.5t12.5 49t18 53t24.5 46.5t34.5 51 q57 68 142 101.5t149.5 40t170.5 6.5h13q66 0 105.5 -3.5t106 -14.5t101.5 -44t35 -84q0 -61 -38 -98t-85 -37q-82 0 -82 82q0 8 4 33q-16 12 -209 12h-186q-47 0 -68 -18q-14 -12 -24.5 -30t-16.5 -32t-14 -45t-11 -49.5t-12.5 -65.5t-13.5 -73h627q45 0 45 -27 q0 -6 -3 -19.5t-3 -19.5l-162 -645q-6 -18 -6 -41q0 -31 21.5 -51.5t49.5 -20.5q49 0 81 96.5t36 98.5q10 8 39 8h55q57 0 57.5 -30.5t-29.5 -103.5t-101.5 -148.5t-159.5 -75.5q-94 0 -162.5 54t-68.5 148q0 29 24.5 133.5t64.5 257t58 232.5h-489q-117 -707 -177 -909 q-43 -152 -127 -233t-180 -81q-84 0 -153.5 35t-69.5 109z" />
<glyph unicode="&#xfb02;" horiz-adv-x="1492" d="M-45 -266q0 53 36 90t87 37q39 0 60.5 -21.5t21.5 -58.5q0 -10 -4 -35q8 0 18 -1t14 -1q41 0 66 26.5t50.5 114.5t53 229.5t72.5 397.5l53 301h-186q-57 0 -57 43q0 8 4 23.5t4 19.5q2 4 4 13.5t3 12.5t4 10t5 9t5 7t7.5 7.5t10.5 4.5t13 3t15 1h195q33 176 51 227 q78 203 330 233q51 6 108 7h5q141 0 215.5 -21.5t93 -49.5t22.5 -79q23 100 33 118.5t45 18.5h80q47 0 47 -28q0 -6 -8 -39l-275 -1102q-8 -33 -6 -53q6 -23 29 -39.5t45 -16.5q35 0 57.5 43t35 93.5t22.5 58.5t39 8h65q47 0 47 -30.5t-39 -116.5q-98 -211 -252 -211 q-94 0 -162.5 55t-68.5 150q0 29 25 129l64 252l61 239h-557q-8 -51 -65.5 -369.5t-80.5 -420.5q-45 -199 -104 -285q-102 -147 -234 -148q-84 0 -153.5 35t-69.5 109zM688 967h569l66 268q-41 -72 -111 -72q-82 0 -82 82q0 18 3 27q-66 8 -150 8h-156q-59 0 -80.5 -51 t-58.5 -262z" />
<glyph unicode="&#xfb03;" horiz-adv-x="2240" d="M-45 -266q0 53 36 90t87 37q82 0 82 -80q0 -10 -4 -35q8 0 20 -1t17 -1q35 0 57 21.5t48 102.5t50.5 203t67.5 359l39 220l21 119q5 28 7 44h-186q-57 0 -57 43q0 8 4 23.5t4 19.5q2 4 4 13.5t3 12.5t4 10t5 9t5 7t7.5 7.5t10.5 4.5t13 3t15 1h195l2 2q29 193 72 272 q88 164 309 189q39 4 119 4q59 0 97 -3.5t97.5 -14.5t91 -43t31.5 -81t-34.5 -89t-88.5 -40q-82 0 -82 82q0 18 2 27q-66 8 -147 8h-152q-59 0 -82.5 -59.5t-54.5 -253.5h600q12 80 19.5 111.5t30 99t65.5 113.5t106 81q111 61 351 62h55q340 0 340 -150q0 -51 -35 -91 t-88 -40q-84 0 -84 82q0 8 4 33q-74 12 -201 12h-227q-72 0 -98.5 -58.5t-52.5 -213.5l-7 -41h658q47 0 47 -27q0 -6 -8 -39l-162 -645q-6 -37 -6 -41q0 -33 23.5 -52.5t50.5 -19.5q37 0 58 43t34.5 93.5t21.5 58.5q12 8 39 8h57q57 0 57.5 -30.5t-29.5 -103.5 t-102.5 -148.5t-160.5 -75.5q-92 0 -160.5 54t-68.5 148q0 29 24.5 133.5t64.5 257t58 232.5h-524q-80 -473 -123 -671.5t-85 -289t-124 -157.5q-125 -104 -277 -105q-279 0 -278 142q0 55 38 92t85 37q82 0 82 -80q0 -20 -4 -33q61 -4 90 -4q90 0 153 43q31 20 46.5 39.5 t40 89.5t51.5 199q27 127 127 698h-600q-8 -53 -65.5 -370.5t-80.5 -422.5q-47 -197 -102 -280q-102 -150 -236 -150q-84 0 -153.5 35t-69.5 109z" />
<glyph unicode="&#xfb04;" horiz-adv-x="2273" d="M-45 -266q0 53 36 90t87 37q82 0 82 -80q0 -10 -4 -35q8 0 20 -1t17 -1q35 0 57 20.5t47 98.5t49.5 196.5t65.5 348.5q72 399 71 405h-186q-57 0 -57 43q0 8 4 23.5t4 19.5q2 4 4 13.5t3 12.5t4 10t5 9t5 7t7.5 7.5t10.5 4.5t13 3t15 1h195l2 2q12 88 23.5 140t41 121.5 t74.5 108.5t124 67t188 28q299 0 299 -142q0 -51 -34 -90t-87 -39q-84 0 -84 80q0 10 4 31q-70 6 -139 6h-107q-18 0 -30.5 -5t-22.5 -18.5t-16.5 -28t-13.5 -45t-12 -56.5l-14 -73l-18 -87h602q14 94 28.5 155.5t48.5 126t84 101t134 60.5t199 24q195 0 261 -36t69 -114 q23 100 33 118.5t42 18.5h84q45 0 45 -28q0 -6 -1 -13.5t-4 -14.5t-3 -11l-274 -1102q-6 -18 -6 -33q0 -35 19 -55.5t54 -20.5q57 0 97 156q2 10 4 14q8 23 18 28t35 5h61q51 0 52 -31q0 -29 -28 -100.5t-99.5 -149t-163.5 -77.5q-94 0 -163 55t-69 150q0 29 24.5 131 t65.5 257.5l60 231.5h-557l-127 -698q-39 -182 -81 -266.5t-126 -155.5q-131 -102 -275 -103q-279 0 -278 142q0 55 38 92t85 37q82 0 82 -80q0 -20 -4 -33q61 -4 90 -4q119 0 192 76q41 45 79 201.5t84 433t63 358.5h-600q-102 -598 -148 -797q-43 -190 -100 -276 q-102 -150 -236 -150q-84 0 -153.5 35t-69.5 109zM1468 967h568l65 268q-41 -72 -110 -72q-82 0 -82 82q0 18 2 27q-66 8 -148 8h-157q-59 0 -84 -60t-54 -253z" />
</font>
</defs>
</svg>
