<?xml version="1.0" standalone="no"?>
<!DOCTYPE svg PUBLIC "-//W3C//DTD SVG 1.1//EN" "http://www.w3.org/Graphics/SVG/1.1/DTD/svg11.dtd" >
<svg xmlns="http://www.w3.org/2000/svg">
<metadata>
This is a custom SVG webfont generated by Font Squirrel.
Copyright   : Converted by Andrey V Panov from TeX fonts
</metadata>
<defs>
<font id="webfontmng8Dr3M" horiz-adv-x="1126" >
<font-face units-per-em="2048" ascent="1638" descent="-410" />
<missing-glyph horiz-adv-x="733" />
<glyph unicode=" "  horiz-adv-x="733" />
<glyph unicode="&#x09;" horiz-adv-x="733" />
<glyph unicode="&#xa0;" horiz-adv-x="733" />
<glyph unicode="!" horiz-adv-x="671" d="M250 90q0 49 41 88t90 39q37 0 63.5 -25.5t26.5 -64.5q0 -51 -41 -89t-88 -38q-37 0 -64.5 25.5t-27.5 64.5zM377 414q0 4 6 41l170 858q27 131 137 131q37 0 62.5 -22.5t25.5 -59.5q0 -14 -10 -59l-260 -857q-12 -43 -21.5 -51t-52.5 -8h-10q-47 0 -47 27z" />
<glyph unicode="&#x22;" d="M528 797q0 4 109 514q0 2 2 11t3 13l4 15.5t5 17.5t7.5 15.5t10.5 15.5t12 13t15.5 11t19.5 7.5t23 3.5q29 0 49.5 -18.5t20.5 -47.5q0 -14 -154 -549q-12 -41 -22 -49t-43 -10h-6q-56 0 -56 37zM872 797q0 14 109 516q23 121 102 121q25 0 46.5 -15.5t21.5 -52.5 q0 -23 -152 -549q-12 -41 -23 -49t-44 -8h-6q-54 0 -54 37z" />
<glyph unicode="#" horiz-adv-x="1808" d="M240 301q0 59 82 59h337l154 304h-377q-41 0 -51 4q-39 12 -39 57q0 59 80 59h451l36 74l258 500q2 2 8 11l8 14q3 5 9 13.5t12 12.5t15.5 7t19.5 3q23 0 40 -16.5t17 -44.5q0 -16 -141 -287l-147 -287h317l37 74l258 500q31 61 70 61q23 0 41 -16.5t18 -44.5 q0 -14 -94 -195l-195 -379h260q29 0 43 -2q23 -4 38.5 -21.5t15.5 -37.5q0 -59 -82 -59h-338l-154 -304h379q39 0 49 -4q39 -14 39 -57q0 -59 -78 -59h-452l-297 -576q-33 -61 -70 -61q-25 0 -41 18.5t-16 40.5q0 18 18 55l271 523h-318l-297 -576q-33 -61 -69 -61 q-25 0 -41.5 18.5t-16.5 40.5q0 18 19 55l270 523h-279q-45 0 -61 20.5t-16 40.5zM795 360h317l154 304h-318z" />
<glyph unicode="$" d="M246 276q0 197 110 197q29 0 47.5 -17.5t18.5 -45.5q0 -57 -51 -84v-25q0 -154 157 -188l142 567q-37 8 -72 22.5t-81 46t-73.5 89t-27.5 133.5q0 61 23.5 129.5t71.5 138.5t138 123t209 70q14 70 25.5 87t48.5 17h12q49 0 49 -37q0 -20 -14 -69q256 -39 256 -271 q0 -182 -109 -182q-29 0 -47 18.5t-18 44.5q0 49 51 84q0 158 -164 185l-127 -510q129 -31 188.5 -114t59.5 -191q0 -166 -120 -322t-328 -180q-23 -86 -33 -96t-45 -11h-8q-51 0 -52 39q0 18 15 70q-121 14 -186.5 88.5t-65.5 193.5zM553 1012q0 -143 154 -181l118 478 q-78 -16 -134 -54t-84.5 -84.5t-41 -85t-12.5 -73.5zM651 115q102 25 170 92t89.5 129.5t21.5 118.5q0 152 -148 194z" />
<glyph unicode="%" horiz-adv-x="1808" d="M317 -72q0 20 29 49l1163 1258q-92 -20 -174 -21q-150 0 -301 70q-4 -207 -117.5 -390t-283.5 -183q-80 0 -145.5 58t-65.5 196q0 123 47 252t144.5 224t215.5 95q29 0 52.5 -6t44 -17.5t31 -19.5t27.5 -24.5t20 -18.5q143 -123 342 -123q252 0 417 184l2 2q25 20 39 21 q39 0 39 -49q14 -14 15 -25q0 -14 -26 -39.5t-54 -47.5l-60 -44q-31 -23 -32 -24l-31 -31l-1247 -1352q-33 -33 -52 -33q-39 0 -39 39zM549 967q0 -76 31.5 -106t74.5 -30q109 0 186 145.5t77 285.5q0 154 -111 153q-72 0 -127 -60.5t-81 -143.5t-38 -147t-12 -97zM1126 139 q0 80 26 175.5t74 185.5t130 150.5t178 60.5q80 0 142.5 -57.5t62.5 -194.5q0 -117 -45 -245t-141.5 -227.5t-215.5 -99.5q-82 0 -146.5 58.5t-64.5 193.5zM1251 143q0 -76 33 -106.5t74 -30.5q111 0 186.5 143.5t77.5 286.5q-2 154 -111 154q-72 0 -127 -60.5t-81.5 -143.5 t-39 -147.5t-12.5 -95.5z" />
<glyph unicode="&#x26;" horiz-adv-x="1695" d="M272 383q0 94 40 200.5t91 182.5q31 45 31 59q0 2 -2 22.5t-2 43.5q0 84 31 177t86 178t148 141.5t204 56.5q106 0 177 -58.5t71 -152.5q0 -70 -32 -100.5t-71 -30.5q-27 0 -46 17.5t-19 45.5q0 41 43 78q-39 82 -143 82q-70 0 -126.5 -36t-88 -82t-54 -108.5t-30 -98 t-11.5 -66.5q125 74 234 74q70 0 104.5 -39t34.5 -101q0 -90 -60.5 -177t-174.5 -87q-125 0 -203 78q-80 -174 -80 -289q0 -297 446 -297q231 0 386 91.5t219 316.5q23 74 22 143q0 119 -88 248q-57 -29 -93 -49.5t-74 -59t-38 -75.5q0 -33 41 -58q29 18 55.5 18.5t44 -17 t17.5 -42.5q0 -33 -26.5 -60.5t-71.5 -27.5q-66 0 -124.5 43t-58.5 123q0 59 38 113.5t74 82t116 77t98 61.5q135 94 207 270q-12 20 -12 41q0 33 27.5 59.5t62.5 26.5q25 0 43 -17.5t18 -41.5q0 -59 -64.5 -181t-170.5 -212q102 -135 102 -301q0 -68 -16.5 -145t-67.5 -178 t-131 -179t-223.5 -133.5t-329.5 -55.5q-139 0 -245.5 28t-168 69t-100.5 97t-52.5 107.5t-13.5 104.5zM586 799q49 -76 145 -76q39 0 58.5 24.5t29.5 83.5q0 4 1 10.5t1 10.5q0 35 -41 35q-98 0 -194 -88z" />
<glyph unicode="'" horiz-adv-x="671" d="M473 797q0 4 109 516q0 2 3 17.5t6 21.5t8 21.5t12 23.5t17.5 18t25 14.5t30.5 4.5q25 0 47.5 -15.5t22.5 -52.5q0 -12 -154 -547q-12 -41 -22.5 -49t-45.5 -10h-4q-55 0 -55 37z" />
<glyph unicode="(" horiz-adv-x="899" d="M289 74q0 393 177 793.5t499 639.5q37 29 69 29h29q43 0 43 -16q-2 -16 -37 -41q-215 -166 -367.5 -425t-217 -506t-64.5 -470q0 -115 18.5 -212t46 -157.5t54 -103.5t45 -67.5t18.5 -31.5q0 -18 -37 -18h-39q-14 0 -24 4t-34 28.5t-56 76.5q-123 198 -123 477z" />
<glyph unicode=")" horiz-adv-x="899" d="M47 -494q0 10 41 41t124 111t163 192q178 248 268 551.5t90 544.5q0 141 -28.5 256t-62.5 170t-62.5 95t-28.5 51q0 18 35 18h45q37 0 96 -90q137 -205 137 -514q0 -223 -65.5 -471t-225 -513t-389.5 -435q-33 -25 -67 -25h-31q-39 0 -39 18z" />
<glyph unicode="*" d="M399 852q0 33 26 52.5t105 60.5l33 16q111 57 168 84q-49 37 -116.5 80t-92 64.5t-24.5 43.5q0 27 24.5 51.5t52.5 24.5q6 0 13.5 -2t18.5 -9t21 -14l28 -23l36 -29l49 -40l60 -49l17 85l14.5 75t12.5 60.5t12 50t11 38t13.5 28.5t16.5 18.5t20.5 12.5t25.5 3 q20 0 34.5 -12.5t14.5 -34.5q0 -8 -2 -19.5t-8 -35t-15.5 -51t-26.5 -89.5l-36 -129l122 71l83 49l47.5 27.5t31.5 15.5t19 3q20 0 34.5 -13t14.5 -36q0 -8 -2 -14l-4 -13q-2 -6 -7 -12t-9 -10t-14 -10l-18 -11l-21 -12q-14 -8 -25 -13l-30 -16q-19 -10 -33 -16 q-147 -78 -168 -86l80 -57q41 -29 65.5 -44.5t46 -30.5t30.5 -28.5t9 -29.5q0 -27 -25.5 -49.5t-52.5 -22.5q-6 0 -11 1t-12 5l-13.5 8t-17.5 12.5l-21 16.5l-28 22l-33 27q-15 12 -40 34l-47 40l-17 -84l-14.5 -74t-12.5 -60.5t-12 -50.5l-12 -38q-6 -20 -13 -30.5t-16 -20 t-20.5 -12.5t-25.5 -3q-20 0 -34.5 14.5t-14.5 34.5q0 8 2 19.5t8 35t15 51t27 88.5l36 130l-93 -53l-70 -42l-50 -30l-36 -21l-24 -12q-12 -6 -18 -7t-15 -1q-20 0 -33.5 12t-13.5 35z" />
<glyph unicode="+" horiz-adv-x="1695" d="M295 512q0 61 80 61h553l25 104l59 230q35 135 53 213q14 74 65 74q25 0 41.5 -17.5t18.5 -41.5q0 -14 -8 -43l-129 -519h520q82 0 82 -61q0 -59 -78 -59h-555l-135 -541q-18 -82 -68 -82q-20 0 -38.5 15.5t-18.5 48.5l137 559h-526q-78 0 -78 59z" />
<glyph unicode="," horiz-adv-x="671" d="M156 -322q0 10 34.5 46t83 110t70.5 166q-94 4 -94 84q0 51 40 92t93 41q37 0 65.5 -27.5t28.5 -95.5q0 -106 -57.5 -226t-119.5 -190.5t-87 -70.5q-14 0 -35.5 28.5t-21.5 42.5z" />
<glyph unicode="-" horiz-adv-x="784" d="M184 440q0 39 21 76q12 20 45 21h440q53 0 53 -37q0 -14 -8 -35q-8 -27 -10 -35t-14.5 -17.5t-34.5 -9.5h-440q-52 0 -52 37z" />
<glyph unicode="." horiz-adv-x="671" d="M252 88q0 47 40 88t91 41q39 0 64.5 -25.5t25.5 -62.5q0 -47 -41 -88t-92 -41q-37 0 -62.5 24.5t-25.5 63.5z" />
<glyph unicode="/" d="M53 -452.5q0 22.5 84 161.5l1065 1774q31 51 66 51q23 0 41 -16.5t18 -42.5q0 -16 -33 -72l-1104 -1841q-2 -2 -7 -11.5t-7 -14.5t-8 -13t-11 -12l-13 -11q-7 -6 -15 -8t-18 -2q-23 0 -40.5 17.5t-17.5 40z" />
<glyph unicode="0" d="M254 315q0 76 26.5 227.5t104.5 356.5t184 309q143 135 326 135q301 0 301 -337q0 -51 -16.5 -157t-51 -247t-103.5 -282.5t-157 -221.5q-135 -121 -313 -121q-301 0 -301 338zM401 315q0 -217 185 -217q63 0 115.5 22.5t93.5 72t71.5 102.5t59 137t48 153.5t44.5 172.5 q0 4 7 34.5t13 62.5t11.5 75t5.5 78q0 215 -189 215q-57 0 -107 -21.5t-85 -49.5t-69 -87t-53.5 -97t-43 -120t-32.5 -118l-30 -122q-45 -170 -45 -293z" />
<glyph unicode="1" d="M272 37q0 66 35 78q10 6 31 6h209l231 926q-141 -94 -235 -95q-43 0 -43 37q0 12 2 21q10 43 22.5 52t51 13t75.5 21q82 33 143.5 93t93.5 103t54 43q37 0 37 -35q0 -2 -12 -57l-281 -1122h197q47 0 47 -37q0 -18 -9.5 -46t-25.5 -34q-8 -4 -27 -4h-540q-56 0 -56 37z " />
<glyph unicode="2" d="M162 0q0 20 24 86q61 160 166 268.5t211 162.5l208 103q101 48 175 123.5t94 192.5q8 33 9 78q0 113 -69 161t-161 48q-150 0 -258 -113t-108 -207q0 -49 39 -49q51 0 100 65.5t49 114.5q0 14 -9 35t-9 27q0 16 36.5 45.5t49.5 29.5q20 0 38.5 -38.5t18.5 -77.5 q0 -94 -90 -209t-209 -115q-63 0 -100 42t-37 108q0 152 152.5 307t355.5 155q160 0 259 -84.5t99 -242.5q0 -86 -22.5 -157t-65.5 -121t-69.5 -74.5t-67.5 -53.5q-92 -66 -209 -117t-203 -107t-172 -167q82 -2 217 -49t203 -47q84 0 142.5 63.5t86.5 145.5q2 4 4 11t3 9 t4.5 7.5t6.5 7.5t7 4t11 3t15 1h33q41 0 41 -25q0 -27 -26.5 -85t-71.5 -123.5t-120 -115t-159 -49.5q-82 0 -215 60.5t-194 60.5q-33 0 -52.5 -19.5t-39.5 -72.5q-10 -29 -47 -29h-27q-47 0 -47 23z" />
<glyph unicode="3" d="M205 242q0 82 31.5 115.5t72.5 33.5q66 0 66 -63q0 -43 -47 -82q29 -150 207 -150q111 0 188.5 35t116.5 92.5t55 113.5t16 116q0 174 -209 174h-67q-39 0 -39 22q0 14 4 23q14 61 25 67q10 6 30 6h64q170 0 258 80q49 45 75.5 113t26.5 127q0 158 -207 158 q-141 0 -236 -72t-95 -143q0 -41 37 -41q23 0 44 22.5t21 46.5q0 12 -9 33t-9 29q0 12 34.5 42.5t53.5 30.5q16 0 34.5 -37.5t18.5 -80.5q0 -80 -64.5 -144.5t-148.5 -64.5q-59 0 -97 40t-38 101q0 133 141 245.5t336 112.5q145 0 233.5 -69.5t88.5 -200.5 q0 -119 -70 -228.5t-184 -164.5q96 -90 96 -227q0 -223 -162 -349.5t-385 -126.5q-143 0 -225 76t-82 189z" />
<glyph unicode="4" d="M102 78q0 18 19.5 30.5t87 62.5t149.5 136q137 143 245 322.5t154 304.5t80.5 238.5t36.5 117.5q25 51 74 51q57 0 58 -55q0 -66 -82 -276q-184 -502 -549 -844h10q35 0 64.5 -3t62.5 -11.5t51.5 -14.5t60.5 -21.5t62 -21.5q82 336 94 371q23 57 78 57q25 0 41 -16.5 t16 -38.5l-98 -406h51q41 0 74 5l35 6q16 0 38.5 -31t22.5 -43q0 -23 -77.5 -40t-124.5 -17q-33 0 -50 2q0 -2 -16 -70l-35 -140q-18 -73 -24 -85q-27 -45 -74 -45q-23 0 -39 15t-16 40q0 14 75 315l-63 24q-47 17 -63 21l-48 14q-33 9 -61.5 11t-63.5 2q-63 0 -103 -6 t-50 -13.5t-20.5 -13.5t-22.5 -6q-14 0 -37 29t-23 43z" />
<glyph unicode="5" d="M219 238q0 84 34 116.5t73 32.5q29 0 48 -18.5t19 -46.5q0 -51 -51 -84q14 -74 72.5 -110t136.5 -36q90 0 160.5 35t112.5 86t70 115.5t38 119t10 99.5q0 172 -170 172q-147 0 -252 -103q-29 -29 -38 -32.5t-40 -3.5h-10q-49 0 -49 36q0 8 2 18l5 22q3 13 5 20l154 614 q14 49 29 49q8 0 46 -15t105.5 -30.5t144.5 -15.5q80 0 157 15.5t121 30.5t48 15q18 0 19 -22q0 -8 -9.5 -42t-15.5 -42q-8 -10 -63.5 -30.5t-150.5 -40t-185 -19.5q-74 0 -156 18l-98 -397q119 76 254 76t215 -78t80 -217q0 -223 -156 -395.5t-404 -172.5q-135 0 -223 73 t-88 188z" />
<glyph unicode="6" d="M260 334q0 123 43 301t111 305q63 117 145 201t164 126t150.5 59t132.5 17q88 0 154.5 -36.5t66.5 -124.5q0 -68 -32 -98.5t-71 -30.5q-31 0 -48 18.5t-17 44.5q0 41 39 76q-43 43 -113 43q-37 0 -79 -8t-104.5 -40t-116.5 -83t-110.5 -146.5t-91.5 -220.5 q176 154 377 154q76 0 130 -31t79 -80t34 -91t9 -83q0 -70 -24.5 -172t-63.5 -172q-20 -39 -52 -79t-88.5 -91t-140.5 -83t-180 -32q-37 0 -72.5 6.5t-79.5 29t-76 59.5t-53.5 104.5t-21.5 157.5zM401 315q0 -223 185 -223q274 0 358 375q2 8 2 12q16 74 17 111 q0 76 -42 128t-143 52q-147 0 -262 -123t-115 -332z" />
<glyph unicode="7" d="M285 942q0 10 39 88l92 187q47 94 59 110t39 16h29q45 0 45 -20q0 -10 -27 -63q147 84 264 83q43 0 73 -23.5t42 -53t35.5 -53t56.5 -23.5q39 0 96.5 28.5t112.5 92.5q14 16 18.5 20t15.5 8t30 4h22q47 0 47 -20q0 -8 -43 -68.5t-113.5 -171t-149.5 -252t-161 -343 t-137 -412.5q-23 -98 -96 -99q-27 0 -45.5 17.5t-18.5 44.5q0 8 8 49q27 102 62 201.5t75 190.5l74.5 163t79.5 150l69 117l62 103q39 62 43 68q-49 -12 -73 -12q-59 0 -112.5 63.5t-100.5 63.5q-106 0 -212 -66.5t-165 -160.5q-20 -35 -28.5 -41t-31.5 -6h-38q-37 0 -37 20 z" />
<glyph unicode="8" d="M207 246q0 143 102.5 270t286.5 203v2q-2 0 -26 18l-34 27q-11 8 -33 31.5t-33 44t-20.5 52.5t-9.5 67q0 139 122 260.5t331 121.5q133 0 220 -58t87 -175q0 -121 -86 -227.5t-237 -171.5l42 -31q34 -25 48 -37t41.5 -40t40 -51.5t23.5 -60t11 -75.5q0 -160 -140 -299.5 t-384 -139.5q-150 0 -251 66t-101 203zM344 266q0 -90 68.5 -132t169.5 -42q164 0 261 86t97 195q0 27 -8 49t-16.5 37.5t-35 39l-43 37t-64.5 49.5l-75 56q-174 -59 -264 -158.5t-90 -216.5zM573 1008q0 -16 3.5 -31.5t14.5 -31.5l19 -25q8 -10 31 -29l37 -30l47 -36 l55 -41q293 117 293 306q0 76 -58.5 110.5t-140.5 34.5q-129 0 -215 -66.5t-86 -160.5z" />
<glyph unicode="9" d="M227 141q0 66 32 96.5t71 30.5q31 0 48 -18.5t17 -44.5q0 -37 -37 -74v-2q47 -37 131 -37q154 0 283 123t199 369q-178 -156 -377 -156q-76 0 -130 30.5t-79 80t-34 92.5t-9 84q0 70 25.5 174t64.5 174q20 37 53 77t89.5 90t141.5 81.5t183 31.5q49 0 93 -12t93.5 -46 t79 -108.5t29.5 -185.5q0 -106 -37 -279t-108 -317q-98 -195 -252 -306.5t-326 -111.5q-104 0 -174 39t-70 125zM492 729q0 -76 41.5 -128t144.5 -52q147 0 261 126t114 341q0 217 -174 217q-285 0 -369 -375q-2 -8 -2 -12q-16 -74 -16 -117z" />
<glyph unicode=":" horiz-adv-x="671" d="M430 811q0 47 40 88t91 41q39 0 64.5 -25.5t25.5 -62.5q0 -47 -41 -88t-92 -41q-37 0 -62.5 24.5t-25.5 63.5zM252 88q0 47 40 88t91 41q39 0 64.5 -25.5t25.5 -62.5q0 -47 -41 -88t-92 -41q-37 0 -62.5 24.5t-25.5 63.5z" />
<glyph unicode=";" horiz-adv-x="671" d="M430 811q0 47 40 88t91 41q39 0 64.5 -25.5t25.5 -62.5q0 -47 -41 -88t-92 -41q-37 0 -62.5 24.5t-25.5 63.5zM156 -322q0 10 34.5 46t83 110t70.5 166q-94 4 -94 84q0 51 40 92t93 41q37 0 65.5 -27.5t28.5 -95.5q0 -106 -57.5 -226t-119.5 -190.5t-87 -70.5 q-14 0 -35.5 28.5t-21.5 42.5z" />
<glyph unicode="&#x3c;" horiz-adv-x="1695" d="M350 512q0 8 1 14t5 12.5t7.5 10.5t10.5 9t9 7t11 6t12.5 6.5t13.5 6.5l10 4l1212 557q29 12 44 12q25 0 41 -17.5t16 -41.5q0 -14 -5 -24.5t-17 -18.5l-18 -14q-7 -5 -23.5 -12t-20.5 -9l-950 -436q-139 -66 -170 -78v-2l852 -508q2 -2 12 -8t14 -9.5l12.5 -10.5 t11.5 -12t6 -13.5t3 -18.5q0 -23 -17.5 -40t-41.5 -17q-20 0 -45 14l-940 561q-56 33 -56 70z" />
<glyph unicode="=" horiz-adv-x="1695" d="M240 301q0 20 14 36.5t37 20.5q8 2 45 2h1186q78 0 77 -61q0 -57 -77 -59h-1203q-79 0 -79 61zM346 723q0 61 78 61h1202q80 0 80 -61q0 -59 -80 -59h-1202q-78 0 -78 59z" />
<glyph unicode="&#x3e;" horiz-adv-x="1695" d="M205 -74q0 14 5 24.5t16 18.5l19 14q7 5 23.5 12t20.5 9l1050 483l72 31q-27 18 -79 48t-64 38l-711 424l-8 4q-8 6 -16.5 11.5t-16.5 13.5t-13 19t-5 24q0 23 17 40t42 17q16 0 82 -37l903 -540q55 -33 55 -68q0 -10 -2 -17.5t-8 -14.5t-11 -12t-14 -10l-15 -8 q-5 -3 -16 -7.5t-13 -6.5l-1213 -559q-35 -10 -43 -10q-25 0 -41 17t-16 42z" />
<glyph unicode="?" d="M418 1004q0 47 37 119.5t99 145t160.5 125t205.5 52.5q125 0 198.5 -64.5t73.5 -179.5q0 -223 -244 -381q-248 -170 -258 -184q-31 -43 -31 -86q0 -41 39 -41q31 0 66 21.5t53 58.5q10 20 19.5 25.5t40.5 5.5q63 0 63 -21q0 -51 -79 -131t-195 -80q-63 0 -99.5 38 t-36.5 101q0 113 76 197q27 31 175.5 130t170.5 118q111 90 111 209q0 68 -44 105.5t-120 37.5q-100 0 -191.5 -66.5t-146.5 -177.5q18 -25 19 -47q0 -37 -29 -65.5t-68 -28.5q-27 0 -46 17.5t-19 46.5zM479 90q0 47 39 87t90 40q37 0 63.5 -24.5t26.5 -65.5 q0 -49 -38.5 -88t-90.5 -39q-39 0 -64.5 25.5t-25.5 64.5z" />
<glyph unicode="@" horiz-adv-x="1695" d="M313 492q0 178 80 375.5t228 336.5q244 229 581 230q248 0 390.5 -134.5t142.5 -367.5q0 -80 -23.5 -188.5t-66.5 -221t-123 -190.5t-178.5 -78t-114.5 119q-143 -119 -316 -119q-127 0 -222 74.5t-95 238.5q0 94 35 196.5t98.5 195t170 150.5t235.5 58q233 0 297 -200 h16q43 0 43 -25q0 -6 -3 -17.5t-11 -44.5l-20 -79l-35 -137l-50 -199q0 -2 -3 -18.5t-3 -26.5q0 -43 35 -43q92 0 154.5 197.5t62.5 328.5q0 193 -117 301.5t-321 108.5q-172 0 -317.5 -74t-236.5 -190.5t-142.5 -255t-51.5 -273.5q0 -201 119 -306t328 -105q205 0 394 45 t226 45h31q39 0 39 -19q0 -20 -106.5 -66t-281.5 -86t-329 -40q-254 0 -396.5 133t-142.5 371zM729 590q0 -117 62.5 -166t144.5 -49q90 0 185.5 54t150.5 175q12 29 33.5 117t21.5 113q0 80 -49 147.5t-164 67.5q-172 0 -278.5 -148.5t-106.5 -310.5z" />
<glyph unicode="A" horiz-adv-x="1615" d="M129 37q0 12 8 39.5t23 36.5q4 4 53 8h111l741 1251q20 33 37.5 43t48.5 10h23q27 0 39 -10t14 -20.5t4 -32.5l84 -899q14 -125 33 -342h106q57 0 57 -37q0 -14 -8 -42t-22 -36q-10 -6 -33 -6h-371q-49 0 -49 35q0 16 6 35q8 35 20.5 43t43.5 8h98l-31 321h-524 l-190 -321h81q20 0 29.5 -1t19 -11.5t9.5 -28.5q0 -20 -9.5 -44t-21.5 -30q-10 -6 -33 -6h-344q-53 0 -53 37zM715 563h440l-59 641z" />
<glyph unicode="B" horiz-adv-x="1542" d="M166 37q0 12 9 40.5t22 37.5q16 6 28 6h144l288 1159h-112q-57 0 -58 37q0 61 31 78q10 4 31 4h561q12 0 32.5 1t33.5 1q281 0 368 -129q43 -59 43 -146q0 -111 -72.5 -209t-199.5 -151q-33 -14 -103 -35q115 -14 191 -80.5t76 -185.5q0 -49 -16.5 -106.5t-59.5 -122 t-105.5 -116.5t-165 -86t-227.5 -34h-694q-45 0 -45 37zM506 121h364q129 0 224.5 33.5t143.5 87t69.5 105.5t21.5 106q0 215 -295 215h-391zM674 788h307q129 0 224 32t143.5 82t71 99.5t22.5 96.5q0 68 -53.5 122t-186.5 60h-405z" />
<glyph unicode="C" horiz-adv-x="1581" d="M309 483q0 119 35 247t109.5 252t177 222.5t251 158.5t318.5 60q233 0 373 -190l108 147q29 41 54 41q27 0 26 -22q0 -6 -58 -241l-61 -243q-10 -37 -47 -36h-10q-41 0 -53 4t-12 24q0 4 1 23.5t1 44.5q0 53 -13.5 105.5t-44 104.5t-91 85t-142.5 33q-117 0 -226.5 -34 t-212 -103.5t-182.5 -191.5t-118 -284q-27 -102 -27 -192q0 -115 42 -197t112.5 -125t144.5 -61.5t156 -18.5q160 0 294 100.5t187 247.5l6 17.5t6 14.5t7 9.5t12.5 8.5t19.5 2h31q47 0 47 -23q0 -16 -8 -33q-61 -195 -254 -329t-422 -134q-72 0 -141.5 13.5t-143.5 49.5 t-128 90t-89 145t-35 208z" />
<glyph unicode="D" horiz-adv-x="1654" d="M164 37q0 84 69 84h134l288 1159h-118q-51 0 -52 37q0 47 21 67q10 16 43 17q4 0 8 -1t6 -1h555q12 0 35 1t33 1q145 0 248.5 -42t157 -115t77 -151.5t23.5 -170.5q0 -104 -27 -220t-91.5 -243t-158.5 -227.5t-245.5 -166t-333.5 -65.5h-611q-61 0 -61 37zM510 121h311 q543 0 688 557q33 127 33 227q0 375 -420 375h-321z" />
<glyph unicode="E" horiz-adv-x="1484" d="M162 37q0 12 9 40.5t22 37.5q16 6 28 6h144l286 1153h-127q-43 0 -43 37q0 55 27 75q14 8 35 9h1005q51 0 51 -43q0 -33 -51 -420q-4 -39 -17 -47t-50 -8h-2q-51 0 -52 41l15 122q12 121 12 177q0 10 -1 16t-1 11t-4 8t-5 5.5t-8.5 4.5t-9.5 2t-12 1t-14 1q-78 8 -244 8 h-352l-123 -490q23 0 67 -1t66 -1q172 0 208 5.5t46 29.5q12 27 25 73l21 80q9 34 20 42q10 10 45 10q59 0 59 -35q0 -6 -127 -518q-4 -20 -14.5 -30.5t-17.5 -11.5t-23 -3h-13q-53 0 -53 37q0 14 15.5 76.5t21.5 117.5q-55 8 -168 9h-209l-135 -543h326q178 0 259 8 t95 16.5t31 36.5q31 51 159 357q12 31 24.5 39t37.5 8h2q23 0 33 -1t19 -8.5t9 -23.5q0 -10 -12 -47l-192 -465q-10 -27 -21.5 -34t-38.5 -7h-1038q-45 0 -45 37z" />
<glyph unicode="F" horiz-adv-x="1427" d="M162 37q0 55 28 76q14 8 31 8h144l286 1153h-125q-45 0 -45 37q0 8 4 28q12 43 29 50q10 6 29 6h979q49 0 49 -43q0 -33 -51 -420q-4 -39 -17.5 -47t-50.5 -8h-2q-31 0 -41 9t-10 32q0 6 13 129.5t13 169.5q0 31 -8 38t-43 11q-66 8 -246 8h-325l-129 -516h196 q131 0 155 9t40 62q10 33 18.5 66t11.5 47t8 28.5t12 18.5t17.5 6t30.5 2q55 0 56 -36q0 -10 -28 -123l-62 -248q-34 -135 -37 -148q-10 -43 -54 -43h-12q-55 0 -55 35q0 16 15 80t24 117q-55 6 -166 6h-201l-129 -516h170q47 0 47 -37q0 -35 -18 -66q-10 -18 -45 -18h-451 q-55 0 -55 37z" />
<glyph unicode="G" horiz-adv-x="1703" d="M309 483q0 158 59.5 321t168 302t282.5 228t381 89q82 0 149.5 -20.5t114.5 -59t65.5 -58t43.5 -52.5l108 147q29 41 54 41q27 0 26 -22q0 -8 -57 -241.5t-62 -242.5q-6 -25 -15 -30.5t-32 -5.5h-32q-27 0 -35 6t-8 24q0 6 1 27.5t1 36.5q0 141 -75 235.5t-214 94.5 q-154 0 -285 -52.5t-218 -135.5t-148.5 -190.5t-89 -216t-27.5 -210.5q0 -111 39 -192t106.5 -125t147.5 -64.5t176 -20.5q72 0 132 8.5t99 18.5t70 29.5t48 34t29.5 39t16.5 36.5t8 34.5t6 27.5q14 51 39 153h-196q-47 0 -47 35q0 20 9 47t26 33q6 4 22 4h444q53 0 54 -37 q-4 -57 -27 -74q-10 -8 -45 -8h-88l-68 -272q-35 -143 -44 -171t-21 -28q-25 0 -62 90q-160 -119 -477 -119q-262 0 -407.5 132t-145.5 374z" />
<glyph unicode="H" horiz-adv-x="1615" d="M162 37q0 12 8 39.5t23 36.5q4 4 55 8h117l288 1159h-108q-23 0 -33 1t-19.5 10t-9.5 28q0 57 29 74q14 8 35 8q2 0 6 -1t6 -1h395q49 0 50 -35q0 -16 -7 -35q-6 -33 -18 -41t-37 -8h-139l-121 -492h643l123 492h-107q-25 0 -35 1t-19 10t-9 28q0 57 29 74q14 8 34 8 q2 0 6.5 -1t6.5 -1h397q49 0 49 -35q0 -14 -8 -42t-23 -36q-10 -6 -55 -6h-115l-290 -1159h114q20 0 29.5 -2t18 -10.5t8.5 -26.5q0 -59 -29 -76q-10 -6 -35 -6h-407q-49 0 -50 35q0 18 7 37q10 49 57 49h137l135 547h-643l-137 -547h115q20 0 29.5 -2t17.5 -10.5t8 -26.5 q0 -59 -29 -76q-10 -6 -34 -6h-408q-51 0 -51 37z" />
<glyph unicode="I" horiz-adv-x="819" d="M152 37q0 55 30 76q10 8 29 8h151l289 1159h-135q-43 0 -43 37q0 70 37 80q8 2 25 2h436q41 0 41 -35q0 -59 -29 -78q-12 -6 -29 -6h-151l-291 -1159h137q43 0 43 -37q0 -70 -39 -82q-6 -2 -24 -2h-422q-55 0 -55 37z" />
<glyph unicode="J" horiz-adv-x="1142" d="M244 188q0 66 32.5 97.5t71.5 31.5q31 0 52.5 -19t21.5 -50q0 -49 -47 -84q47 -66 151 -66q41 0 78 11.5t61.5 28t46 41t34 47t22.5 50t15 44t10 36.5l4 21l225 903h-178q-47 0 -47 37q0 63 32 78q10 4 33 4h395q2 0 7.5 1t9.5 1q49 0 49 -37q0 -84 -68 -84h-88 q-4 -20 -13 -56t-13 -50l-209 -838q-25 -92 -50.5 -147.5t-84.5 -106.5q-113 -104 -281 -105q-119 0 -195.5 58.5t-76.5 152.5z" />
<glyph unicode="K" horiz-adv-x="1673" d="M166 37q0 12 8 39.5t23 36.5q10 8 28 8h144l288 1159h-108q-23 0 -33 1t-19.5 10t-9.5 28q0 57 29 74q14 8 35 8q2 0 6 -1t6 -1h389q49 0 49 -35q0 -4 -1 -10t-3 -13.5t-2 -11.5q-8 -33 -20 -41t-37 -8h-137l-166 -662l842 660v2h-52q-53 0 -53 37q0 53 27 74q10 8 41 8 h350q2 2 6 2q49 0 49 -37q0 -39 -16 -66q-14 -18 -49 -18h-115q-8 0 -13 -1l-11 -2q-5 -1 -13 -7l-14 -10.5t-21.5 -17.5t-29.5 -23l-490 -385l326 -713h102q53 0 53 -37q0 -18 -9 -46t-25 -34q-10 -4 -31 -4h-324q-49 0 -49 35q0 18 6 37q8 33 20.5 41t41.5 8h63l-284 622 q-20 -12 -324 -251q-35 -29 -39 -35q-8 -18 -78 -293q-4 -23 -10 -43h113q20 0 30.5 -2t18.5 -10.5t8 -26.5q0 -23 -9 -46.5t-22 -29.5q-10 -6 -33 -6h-401q-51 0 -51 37z" />
<glyph unicode="L" horiz-adv-x="1370" d="M162 37q0 12 9 40.5t22 37.5q16 6 28 6h144l288 1159h-118q-51 0 -52 37q0 70 37 80q8 2 27 2h426q4 0 12 1t10 1q55 0 56 -37q0 -14 -9.5 -43t-23.5 -35q-8 -6 -31 -6h-184l-289 -1159h264q260 0 301 33q18 14 60.5 114.5t69 173t34.5 97.5q12 33 25.5 40t48.5 7 q51 0 51 -37q0 -8 -151 -430q-35 -98 -48 -109q-10 -10 -41 -10h-921q-45 0 -45 37z" />
<glyph unicode="M" horiz-adv-x="1957" d="M172 37q0 55 29 76q6 4 57 8h117l289 1159h-117q-53 0 -53 35q0 16 6 37q4 16 7 23t15.5 15.5t32.5 8.5h244q4 0 10 1t10 1q20 0 32.5 -4t19 -18.5t7.5 -20.5t3 -29l123 -1057q0 -4 4 -46t8 -62l706 1147q39 61 54.5 75.5t56.5 14.5q4 0 12 -1t13 -1h227q45 0 45 -35 q0 -14 -9.5 -43t-23.5 -35q-8 -6 -29 -6h-141l-289 -1159h119q51 0 51 -37q0 -68 -36 -80q-8 -4 -29 -4h-367q-35 0 -50 6t-15 29q0 12 6 37q8 31 21.5 40t35.5 9h137l281 1124l-78 -127l-653 -1061q-23 -35 -40 -46t-52 -11h-2q-33 0 -43.5 13.5t-14.5 47.5l-121 1041 q-2 25 -7 67.5t-7 63.5h-2l-276 -1112h118q51 0 52 -37q0 -68 -37 -80q-10 -4 -29 -4h-360q-68 0 -68 37z" />
<glyph unicode="N" horiz-adv-x="1615" d="M166 37q0 55 29 76q6 4 57 8h117l288 1159h-116q-53 0 -54 35q0 16 7 37q4 16 7 23t14 15.5t32 8.5h205q2 0 9 1t11 1q6 0 12.5 -1t11.5 -2t9 -4t6 -4t6 -6.5t5 -7.5t4 -9t4 -9t3.5 -11.5t4.5 -11.5l348 -962l37 -101l252 1008h-121q-49 0 -49 37q0 68 36 80q16 4 29 4 q2 0 10.5 -1t10.5 -1h364q41 0 41 -35q0 -57 -29 -78q-10 -6 -55 -6h-117l-30 -127l-277 -1106q-8 -29 -19.5 -38t-41.5 -9h-6q-18 0 -27.5 2t-19 11.5t-15.5 27.5l-366 1010q-29 78 -41 116l-263 -1046h119q51 0 51 -37q0 -23 -10 -49.5t-26 -30.5q-10 -4 -29 -4h-361 q-67 0 -67 37z" />
<glyph unicode="O" horiz-adv-x="1695" d="M307 473q0 123 36 253t111.5 255t179 223.5t251 158.5t317.5 60q92 0 178 -23.5t168 -75.5t132.5 -155.5t50.5 -246.5q0 -166 -70 -353.5t-203 -326.5q-252 -264 -620 -265q-94 0 -180.5 23t-168 75t-132 154.5t-50.5 243.5zM469 506q0 -115 37 -197t99.5 -124t128 -60.5 t138.5 -18.5q141 0 261 55.5t201 143.5t138.5 197.5t83 215t25.5 200.5q0 109 -37 186.5t-100.5 117.5t-131 57t-143.5 17q-106 0 -206.5 -32.5t-195.5 -100t-168 -187.5t-107 -280q-23 -104 -23 -190z" />
<glyph unicode="P" horiz-adv-x="1484" d="M164 37q0 12 8 39.5t23 36.5q4 4 55 8h117l288 1159h-127q-43 0 -43 37q0 55 27 76q10 6 33 6h569q8 0 24.5 1t24.5 1h23q70 0 133 -14.5t123.5 -47t97.5 -96t37 -151.5q0 -78 -32 -160t-99.5 -165t-196.5 -135t-301 -52h-317l-115 -459h115q20 0 29.5 -2t17.5 -10.5 t8 -26.5q0 -59 -29 -76q-10 -6 -34 -6h-410q-49 0 -49 37zM655 700h297q246 0 359 111q111 109 110 262q0 57 -23.5 98t-55 61.5t-83 32t-86 13.5t-86.5 2h-286z" />
<glyph unicode="Q" horiz-adv-x="1695" d="M307 473q0 154 58.5 316.5t166 306t283.5 235.5t387 92q74 0 142.5 -13t140 -48t125 -89t87.5 -145.5t34 -205.5q0 -211 -99.5 -425t-277.5 -347q-123 -94 -248 -130v-28q0 -55 3 -87t13.5 -72t36 -58.5t66.5 -18.5q72 0 139.5 59.5t101.5 157.5q14 47 33 54 q12 4 24.5 -4.5t12.5 -22.5q0 -27 -22.5 -87t-61.5 -132t-108.5 -125t-149.5 -53q-49 0 -85 19.5t-53.5 44t-26.5 64.5t-10 62.5t-1 56.5q0 76 6 146q-100 -18 -184 -19q-246 0 -389.5 130t-143.5 366zM459 494q0 -264 219 -359q14 102 90 153.5t156 51.5q160 0 178 -197 q113 41 202 120t139 165t83 182.5t44 167t11 125.5q0 201 -113.5 296t-291.5 97h-5q-139 0 -259.5 -52t-201.5 -137t-139.5 -191.5t-85 -214t-26.5 -207.5zM803 143q0 -41 67 -41h2q74 0 146 17q-18 100 -107 100q-47 0 -77.5 -24.5t-30.5 -51.5z" />
<glyph unicode="R" horiz-adv-x="1599" d="M164 37q0 12 8 39.5t23 36.5q4 4 55 8h117l288 1159h-114q-55 0 -56 37q0 63 33 78q10 4 31 4h479q14 2 41 2q141 0 231 -23q70 -18 120 -50t75 -62.5t39 -68.5t17 -58.5t3 -40.5q0 -94 -54 -182.5t-136 -147.5q-59 -45 -156 -80q113 -74 113 -203q0 -39 -25.5 -149.5 t-25.5 -142.5q0 -51 26.5 -73t59.5 -22q39 0 64.5 27t42 59.5t22.5 36.5q10 8 45 8q57 0 57 -34q0 -51 -69.5 -134.5t-176.5 -83.5q-86 0 -156.5 47.5t-70.5 157.5q0 45 30 158t30 141q0 61 -63.5 110.5t-215.5 49.5h-254l-131 -520h115q20 0 29.5 -2t17.5 -10.5t8 -26.5 q0 -82 -66 -82h-397q-53 0 -53 37zM672 760h274q303 0 412 182q39 68 39 137q0 66 -32 109t-89 61.5t-109.5 24.5t-122.5 6h-243z" />
<glyph unicode="S" horiz-adv-x="1241" d="M166 2q0 6 50 211t54 213q6 27 16.5 33t32.5 6h23q23 0 31 -1t14 -6t6 -18q0 -6 -5 -36.5t-5 -59.5q0 -92 52 -150.5t115.5 -77t137.5 -18.5q166 0 258 109.5t92 224.5q0 27 -5 50.5t-14 41t-19.5 31.5t-24.5 25l-26 18q-11 8 -25 13l-23 9l-18 7l-11 2q-244 63 -276 76 q-68 27 -124 93t-56 173q0 72 32.5 149.5t92 146t158 112.5t214.5 44q211 0 301 -151h3q90 137 102 145q14 8 29.5 3t15.5 -23q0 -6 -51 -211t-53 -209q-8 -31 -16.5 -37t-37.5 -6h-30q-25 0 -32 6t-7 23q0 6 2 33.5t2 50.5q0 121 -61.5 191.5t-186.5 70.5 q-154 0 -244 -96.5t-90 -200.5q0 -70 43 -115t95.5 -60.5t145.5 -38t144 -40.5q86 -33 139.5 -108t53.5 -179q0 -74 -32 -157t-90.5 -159.5t-161.5 -127t-228 -50.5q-246 0 -355 150h-2q-43 -72 -67.5 -105.5t-31.5 -39t-19 -5.5q-27 0 -27 25z" />
<glyph unicode="T" horiz-adv-x="1581" d="M350 905l144 432q10 31 21 40t38 12h1153q45 -4 45 -39q0 -10 -68 -422q-4 -33 -15 -45.5t-44 -12.5h-12q-51 0 -51 37q0 10 19 137t24 209q-59 14 -197 15h-225l-287 -1147h197q49 0 49 -37q0 -18 -10.5 -46t-26.5 -34q-8 -4 -27 -4h-555q-55 0 -55 37q0 16 9 44t26 34 q10 6 30 6h211l287 1147h-168q-182 0 -222 -8.5t-58 -51.5q-29 -68 -51.5 -129t-32 -93t-18.5 -58.5t-16 -36.5t-18.5 -15.5t-31.5 -5.5h-11q-53 0 -53 35z" />
<glyph unicode="U" horiz-adv-x="1615" d="M432 328q0 74 31 196l188 756h-106q-25 0 -35 1t-19.5 10t-9.5 28q0 57 31 74q14 8 33 8q2 0 6 -1t6 -1h397q49 0 50 -35q0 -4 -1.5 -10l-3.5 -13.5t-2 -11.5q-8 -33 -20 -41t-37 -8h-137l-182 -733q-41 -160 -41 -221q0 -125 72.5 -177.5t178.5 -52.5q127 0 244 73 t180 243q10 29 29 100l193 768h-121q-51 0 -51 37q0 20 10 47t28 33q16 4 27 4q4 0 11.5 -1t9.5 -1h268q10 0 29.5 1t29.5 1h8q37 0 54.5 -6t17.5 -31q0 -57 -29 -78q-10 -6 -55 -6h-117l-192 -770q-16 -78 -39 -135q-66 -172 -210 -285t-341 -113q-170 0 -276.5 91.5 t-106.5 259.5z" />
<glyph unicode="V" horiz-adv-x="1615" d="M422 1315q0 14 9 42.5t22 35.5q10 6 34 6h357q2 2 6 2q49 0 49 -37q0 -14 -6 -33q-8 -35 -20.5 -43t-38.5 -8h-101l131 -1092h2l678 1092h-82q-18 0 -27.5 1t-17.5 10t-8 28q0 23 9 46.5t22 29.5q10 4 33 4h333q53 0 54 -35q0 -45 -21 -70q-12 -14 -49 -14h-82 q-25 0 -34 -6t-34 -45l-739 -1190q-23 -35 -40 -45t-54 -10h-14q-35 0 -46.5 12t-15.5 47l-135 1110q-12 78 -16 127h-105q-53 0 -53 35z" />
<glyph unicode="W" horiz-adv-x="2185" d="M418 1317q0 12 8 39.5t23 36.5q10 6 32 6h342q2 2 4 2q49 0 50 -37q0 -2 -7 -33q-8 -35 -20 -43t-37 -8h-111l37 -670l21 -405q12 25 145 268l416 752q23 39 27 55h-86q-20 0 -30.5 1t-19 10t-8.5 28q0 57 31 74q10 6 33 6h340q2 2 6 2q47 0 47 -37q0 -16 -6 -35 q-6 -33 -18.5 -41t-39.5 -8h-108l47 -891l8 -184h2l592 1075h-113q-49 0 -49 35q0 14 8.5 42.5t22.5 35.5q10 6 35 6h338q51 0 51 -35q0 -37 -14.5 -57.5t-27.5 -23.5t-32 -3h-100l-688 -1239q-16 -33 -32.5 -45t-51.5 -12h-10q-10 0 -18.5 1t-14.5 3t-10.5 4t-7.5 7t-4 8 t-2 11.5t-2 11.5t-1 13v14l-59 1055q-20 -47 -54 -116l-72 -139q-38 -71 -48 -91l-301 -549q-109 -195 -121 -211q-18 -23 -62 -22h-10q-39 0 -48 13t-11 52l-62 1104l-6 125v2h-92q-51 0 -51 37z" />
<glyph unicode="X" horiz-adv-x="1615" d="M115 37q0 51 24 72q12 12 56 12h84q6 0 14 -1t10 -1q25 0 66 43l526 569l-248 549h-137q-45 0 -45 37q0 18 10 45t25 33q10 4 30 4h359l4 2h4q49 0 49 -37q0 -16 -6 -37q-8 -33 -21.5 -40t-41.5 -7h-62l193 -424l393 424h-60q-49 0 -49 35q0 18 6 37q6 29 17.5 38t40.5 9 h342q2 2 8 2q53 0 53 -37q0 -47 -20 -72q-12 -12 -58 -12h-92q-33 0 -42 -5t-50 -48l-414 -449q-20 -20 -20 -35q0 -10 14 -38l234 -515l30 -69h140q43 0 43 -37q0 -63 -35 -80q-8 -4 -31 -4h-366q-49 0 -50 35q0 18 7 37q8 33 21 41t42 8h62l-230 506l-469 -506h55 q53 0 54 -35q0 -8 -4 -33q-10 -35 -20.5 -44t-43.5 -9h-352q-49 0 -49 37z" />
<glyph unicode="Y" horiz-adv-x="1615" d="M412 1317q0 31 16 63q14 18 47 19h373q49 0 49 -35q0 -18 -6 -37q-6 -33 -19.5 -40t-40.5 -7h-71l231 -588l527 588h-54q-53 0 -53 33q0 16 6 35q8 33 19.5 42t40.5 9h346l2 2q45 0 45 -37q0 -45 -23 -72q-12 -12 -49 -12h-104q-29 0 -54 -25l-593 -663 q-20 -23 -30.5 -47.5t-18 -56l-32.5 -137.5l-59 -230h117q18 0 28.5 -2t18.5 -10.5t8 -26.5q0 -23 -9 -46.5t-21 -29.5q-10 -6 -33 -6h-404q-49 0 -49 35q0 18 6 37q10 49 58 49h137q106 399 106 434q0 14 -8 39l-272 686h-123q-55 0 -55 37z" />
<glyph unicode="Z" horiz-adv-x="1353" d="M172 31q0 25 11.5 49t21.5 35l12 12l1090 1153h-281q-184 0 -257 -10t-96.5 -30.5t-49.5 -84.5q-27 -66 -46.5 -123t-24.5 -81.5t-14.5 -43t-21.5 -22.5t-41 -4q-53 0 -53 34q0 2 31.5 116t68.5 232.5t49 127.5q10 8 33 8h887q35 0 35 -29q0 -49 -58 -106l-1073 -1139 h295q170 0 251 8t103.5 20.5t38.5 41.5q25 49 50.5 119.5t52 155.5t31.5 95q14 39 57 39q63 0 63 -35q0 -10 -40 -142l-80 -259l-41 -127q-8 -25 -20.5 -33t-37.5 -8h-903q-43 0 -43 31z" />
<glyph unicode="[" horiz-adv-x="671" d="M150 -475q0 10 22 94l467 1870q6 25 16.5 35t36.5 12h213q41 0 41 -37q0 -59 -28 -76q-4 -2 -31 -8h-133l-451 -1806h111q51 0 51 -37q0 -55 -27 -76q-14 -8 -32 -8h-205q-51 0 -51 37z" />
<glyph unicode="\" d="M535 1470q0 33 19 48.5t38 15.5q63 0 63 -86l189 -1870q0 -4 1 -12t1 -12q0 -31 -19.5 -47.5t-40.5 -16.5q-53 0 -63 86l-186 1868q-2 8 -2 26z" />
<glyph unicode="]" horiz-adv-x="671" d="M-20 -475q0 12 8 39.5t22 36.5q10 8 29 8h135l451 1806h-113q-49 0 -49 37q0 57 26 76q10 8 31 8h203q53 0 53 -37q0 -8 -4 -24l-467 -1870q-2 -10 -6 -25.5t-5 -23t-4 -17.5t-5 -15t-4 -12.5t-5.5 -9.5t-7.5 -6t-9 -5l-10 -2q-5 -1 -13 -1h-213q-43 0 -43 37z" />
<glyph unicode="^" horiz-adv-x="1353" d="M520 1034q0 10 7.5 20.5t15.5 15.5t21.5 11t15.5 9l381 198q14 10 30 10q10 0 35 -14l283 -201q37 -27 37 -47q0 -18 -26 -46.5t-44.5 -28.5t-152.5 95t-148 97l-2 2q-20 0 -204.5 -98.5t-201.5 -98.5q-23 0 -35 29t-12 47z" />
<glyph unicode="_" horiz-adv-x="1695" d="M98 -498q0 41 64 41h1122q59 0 59 -41q0 -35 -57 -41h-1128q-60 0 -60 41z" />
<glyph unicode="`" d="M594 1319q0 29 23.5 53.5t52 24.5t71.5 -43q160 -156 183.5 -180.5t23.5 -36.5q0 -18 -28.5 -46t-45 -28t-81.5 55q-176 152 -185 162q-14 19 -14 39z" />
<glyph unicode="a" d="M238 295q0 139 56 285.5t174 258t267 111.5q119 0 199 -92q25 59 78 60q25 0 41 -15.5t16 -40.5q0 -14 -14 -76l-133 -526q-10 -37 -11 -67q0 -41 22.5 -61.5t43.5 -20.5q35 0 59.5 45t39 100t18.5 61q12 12 53 13q37 0 48 -5.5t11 -19.5q0 -35 -37 -123 q-82 -193 -215 -192q-57 0 -104 31.5t-70 91.5q-131 -123 -276 -123q-104 0 -185 70.5t-81 234.5zM383 287q0 -98 44 -138t99 -40q84 0 163 70.5t116 172.5q2 4 17.5 58.5t30.5 123t15 95.5q0 76 -34.5 138t-118.5 62q-88 0 -158 -67.5t-104.5 -163.5t-52 -178t-17.5 -133z " />
<glyph unicode="b" horiz-adv-x="1011" d="M244 291q0 86 35 221l133 530l55 228q-66 4 -96 4h-9q-53 0 -53 37q0 12 6 30q8 31 17.5 41.5t34.5 12.5q217 27 229 26q37 0 37 -37q0 -12 -127 -520q115 86 233 86q104 0 184.5 -72.5t80.5 -232.5q0 -139 -55.5 -286.5t-174.5 -259t-268 -111.5q-104 0 -183 71.5 t-79 231.5zM379 291q0 -102 44 -142t103 -40q88 0 158 66.5t105.5 160.5t53 178t17.5 139q0 98 -44 137t-101 39q-53 0 -123 -40.5t-129 -147.5q-31 -57 -57.5 -174t-26.5 -176z" />
<glyph unicode="c" horiz-adv-x="1011" d="M242 311q0 143 61.5 286.5t191.5 248t298 104.5q104 0 171.5 -49t67.5 -129q0 -59 -31.5 -90t-68.5 -31q-31 0 -48.5 18.5t-17.5 45.5q0 35 33 71v2q-53 41 -127 41q-106 0 -187 -62t-120 -153.5t-57.5 -169t-18.5 -133.5q0 -94 50 -148t151 -54q82 0 153.5 23.5 t109.5 50t66.5 50t34.5 23.5q14 0 39 -26.5t25 -41.5q0 -23 -55.5 -68.5t-165 -88.5t-228.5 -43q-158 0 -242.5 88t-84.5 235z" />
<glyph unicode="d" d="M238 295q0 137 55 283.5t174 259t268 112.5q127 0 197 -92h2l102 412q-27 2 -57.5 3t-45.5 1t-29.5 3t-19.5 10t-5 24q0 53 22 71q10 8 75.5 17.5t125.5 15.5l61 6q37 0 37 -37q0 -10 -4 -34l-274 -1092q-10 -37 -11 -65q0 -41 22.5 -61.5t43.5 -20.5q35 0 59.5 45 t39 100t18.5 61q10 12 41 13h28q43 0 43 -25q0 -37 -45 -141.5t-112 -149.5q-43 -25 -95 -24q-57 0 -104 31.5t-70 91.5q-127 -123 -276 -123q-104 0 -185 70.5t-81 234.5zM383 287q0 -98 44 -138t99 -40q82 0 162 70.5t117 170.5q63 217 63 281q0 74 -34.5 136t-118.5 62 q-88 0 -158 -67.5t-104.5 -163.5t-52 -178t-17.5 -133z" />
<glyph unicode="e" horiz-adv-x="1011" d="M252 334q0 256 150.5 436t388.5 180q106 0 174.5 -54t68.5 -142q0 -29 -8 -59.5t-34.5 -75t-91 -81t-159.5 -55.5q-121 -20 -327 -20q-16 -72 -17 -135q0 -115 54.5 -167t138.5 -52q86 0 157.5 23.5t107.5 50t62.5 50t34.5 23.5q16 0 38 -22.5t26 -34.5q8 -18 -21 -47 q-164 -164 -428 -164q-55 0 -106 16t-100.5 53t-79 108t-29.5 169zM444 584h68q395 0 395 151q0 35 -33.5 64.5t-103.5 29.5q-232 1 -326 -245z" />
<glyph unicode="f" horiz-adv-x="671" d="M-55 -285q0 43 28.5 75t69.5 32q29 0 47.5 -18.5t18.5 -45.5q0 -20 -11 -45q20 -2 45 -2q39 0 63.5 28t51.5 118q29 100 66.5 285.5t78.5 410.5t50 266h-154q-47 0 -47 35q0 16 9 44t24 36q8 4 28 4h162q57 305 92 367q31 51 85.5 90t125.5 39q70 0 132.5 -30t62.5 -97 q0 -41 -27.5 -72t-71.5 -31q-29 0 -47 17.5t-18 44.5q0 20 10 45q-18 2 -53 2q-59 0 -77.5 -38t-53.5 -226q-12 -70 -21 -111h191q43 0 43 -35q0 -18 -9.5 -46t-23.5 -34q-10 -4 -33 -4h-190l-2 -2q-119 -678 -174 -885q-94 -342 -285 -342q-66 0 -126 29.5t-60 95.5z" />
<glyph unicode="g" horiz-adv-x="1011" d="M123 -303q0 43 29.5 73.5t68.5 30.5q66 0 66 -67q0 -12 -2 -19q49 -4 121 -4q193 0 262 117q14 23 71 258q-117 -86 -231 -86q-106 0 -187 70.5t-81 230.5q0 143 57 289.5t175 253t263 106.5q119 0 199 -92q23 59 78 60q25 0 41 -15.5t16 -40.5q0 -12 -4 -33l-227 -907 q0 -2 -5.5 -23.5t-8.5 -30.5l-10 -31q-7 -22 -16.5 -37l-22.5 -34.5t-31.5 -39t-41.5 -35.5q-125 -100 -317 -101h-20q-242 1 -242 107zM385 297q0 -98 44 -137t101 -39q92 0 169 77.5t108 159.5q61 207 61 277q0 84 -37.5 139t-115.5 55q-88 0 -157 -65.5t-103.5 -159.5 t-52 -175t-17.5 -132z" />
<glyph unicode="h" d="M166 49q0 20 6 35l264 1059l31 127q-27 2 -56.5 3t-45 1t-31 3t-20.5 10t-5 22q0 10 6 32q8 31 17.5 41.5t34.5 12.5q217 27 229 26q37 0 37 -37q0 -14 -141 -573q139 139 303 139q113 0 173 -55t60 -158q0 -100 -75.5 -322t-75.5 -241q0 -63 53 -63q20 0 42.5 10 t56.5 56t56 122q10 31 50 31h32q41 0 41 -25q0 -31 -32.5 -101.5t-107.5 -142t-163 -71.5q-78 0 -123 47t-45 121q0 43 76 254t76 301q0 117 -119 116q-100 0 -181 -70.5t-129 -181t-79 -216t-53.5 -204t-30.5 -118.5q-20 -49 -72 -49q-25 0 -42 16t-17 43z" />
<glyph unicode="i" horiz-adv-x="671" d="M541 1327q0 35 28.5 63.5t67.5 28.5q27 0 46 -17.5t19 -45.5q0 -35 -29.5 -64.5t-66.5 -29.5q-29 0 -47 18t-18 47zM150 633q0 31 32.5 102.5t107.5 143t165 71.5q76 0 122 -49t46 -121v-14q0 -33 -100.5 -295t-100.5 -299q0 -61 53 -61q20 0 42 10t55.5 54t56.5 118 q6 18 11 24.5t19.5 9.5t45.5 3q49 0 49 -25q0 -66 -91.5 -190.5t-211.5 -124.5q-72 0 -120 46t-48 122q0 55 99 312t99 302q0 25 -14 41t-39 16q-20 0 -43 -10t-55.5 -54t-55.5 -118q-8 -25 -19 -32t-36 -7h-18q-51 0 -51 25z" />
<glyph unicode="j" horiz-adv-x="671" d="M-78 -299q0 43 31 71.5t67 28.5q66 0 66 -63q0 -6 -4 -27h31q172 0 235 168l14 53l189 754q10 31 10 57q0 39 -20.5 62.5t-53.5 23.5q-59 0 -115.5 -52t-90.5 -128q-8 -18 -13.5 -25.5t-17.5 -11.5t-35 -4q-39 0 -51 4t-12 19q0 20 26.5 69.5t70.5 106.5t115.5 100 t145.5 43q84 0 137 -54t53 -136q0 -35 -18 -109l-182 -727q0 -2 -5.5 -19.5t-7.5 -27.5t-10 -31.5t-16 -37t-21.5 -37t-30 -40t-40 -38t-50.5 -37.5q-102 -66 -217 -66q-82 0 -131 30t-49 81zM621 1327q0 35 28.5 63.5t65.5 28.5q29 0 48 -17.5t19 -45.5q0 -35 -29.5 -64.5 t-66.5 -29.5q-29 0 -47 18t-18 47z" />
<glyph unicode="k" horiz-adv-x="1011" d="M166 47q0 12 4 33l268 1073q20 78 29 117q-53 4 -78 4h-24q-55 0 -56 37q0 53 27 73q8 8 73.5 17.5t127.5 15.5l59 4q37 0 37 -35q0 -8 -4 -32l-189 -754q59 25 130 86.5t124.5 117.5t126 101t142.5 45q63 0 96 -44t33 -111q0 -84 -32 -118t-73 -34q-29 0 -47 17.5 t-18 44.5q0 49 49 83q-6 41 -39 41q-66 0 -135.5 -52t-198.5 -177l-41 -41q96 -25 163.5 -82t67.5 -155q0 -25 -7 -64t-7 -55q0 -41 20.5 -66.5t51.5 -25.5q14 0 28 6q33 16 54.5 57t34 87t16.5 52q10 16 49 17q41 0 53.5 -4t12.5 -20.5t-16.5 -62.5t-47.5 -105.5 t-87 -103.5t-122 -44q-86 0 -136 58t-50 147q0 29 7 63.5t7 46.5q0 68 -68.5 108t-177.5 48q0 -2 -24 -103l-50 -204q-26 -104 -30 -113q-23 -51 -74 -51q-25 0 -42 16t-17 41z" />
<glyph unicode="l" horiz-adv-x="557" d="M203 178q0 20 30 156l234 936q-27 2 -56.5 3t-45 1t-31 3t-20.5 11t-5 23q0 49 25 73q23 18 262 37q37 0 37 -37q0 -14 -6 -32l-275 -1104q-10 -31 -10 -53q0 -43 22.5 -63.5t45.5 -20.5q10 0 20 4t18.5 13t14.5 18.5t13 23.5t11.5 25.5t9.5 30t8 26.5t7 26.5t6 22.5 q10 29 41 29h35q45 0 45 -25q0 -47 -53 -158q-76 -158 -199 -157q-78 0 -131 52t-53 136z" />
<glyph unicode="m" horiz-adv-x="1808" d="M150 633q0 8 10 47t36.5 97.5t57.5 96.5q63 76 147 76q29 0 61 -8t71.5 -48t50.5 -108q147 164 325 164q209 0 232 -180h2q135 180 336 180q98 0 165.5 -48t67.5 -165q0 -102 -75.5 -322t-75.5 -241q0 -63 53 -63q94 0 153 182q8 25 17.5 31t42.5 6q41 0 52 -4t11 -21 q0 -33 -31.5 -102.5t-106.5 -141t-165 -71.5q-74 0 -121 47t-47 121q0 43 76 256t76 299q0 117 -119 116q-66 0 -123 -29.5t-100 -88t-76 -115.5t-61.5 -145.5t-43 -138.5t-34 -135t-23.5 -99q-23 -88 -84 -88q-25 0 -42 14t-17 39q0 27 76.5 320.5t76.5 349.5 q0 117 -116 116q-102 0 -183 -72.5t-129.5 -183t-80 -219t-52 -205t-30.5 -114.5q-25 -45 -72 -45q-23 0 -40 14t-17 37q-2 12 8 55l147 590q10 31 10 59q0 43 -22.5 62.5t-44.5 19.5q-35 0 -59.5 -46t-39 -100t-18.5 -60q-10 -12 -37 -13h-35q-40 0 -40 25z" />
<glyph unicode="n" horiz-adv-x="1241" d="M150 633q0 14 14 59t41.5 105.5t80 106.5t115.5 46q29 0 61 -8t71.5 -48t50.5 -108q150 164 325 164q98 0 166 -48t68 -165q0 -102 -76 -321t-76 -242q0 -63 53 -63q14 0 31 7t39.5 24.5t46 58.5t39.5 98q8 23 18.5 27t53.5 4q51 0 51 -25q0 -20 -20.5 -68.5 t-56.5 -104.5t-97.5 -99t-130.5 -43q-76 0 -121 48t-45 120q0 41 74.5 252t74.5 303q0 117 -116 116q-86 0 -158 -53t-117 -132t-81.5 -178t-56.5 -183l-37 -156q-17 -72 -25 -90q-25 -47 -72 -47q-53 0 -57 51q-2 10 8 53l147 590q10 51 10 64q0 39 -21.5 59t-45.5 20 q-35 0 -59.5 -46t-39 -100t-18.5 -60q-10 -12 -37 -13h-35q-40 0 -40 25z" />
<glyph unicode="o" d="M242 311q0 145 62.5 288.5t192.5 247t296 103.5q57 0 110 -16t102.5 -50t79 -100.5t29.5 -156.5q0 -106 -38 -218t-105.5 -206t-175 -154.5t-232.5 -60.5q-55 0 -107.5 15t-102.5 49t-80.5 100.5t-30.5 158.5zM389 311q0 -111 56.5 -156.5t138.5 -45.5q106 0 188 62 t121 153.5t57.5 169t18.5 133.5q0 111 -57.5 156.5t-139.5 45.5q-100 0 -179 -56t-121 -141t-62.5 -168t-20.5 -153z" />
<glyph unicode="p" d="M47 -362q0 14 8 41.5t23 35.5q8 6 43 6h74q4 20 13 56.5t13 50.5l217 870q6 25 6 50q0 41 -22.5 60t-42.5 19q-35 0 -59.5 -44t-39 -100t-18.5 -62q-12 -12 -53 -13q-37 0 -48 5t-11 20l6 31q82 287 245 286q49 0 100.5 -28.5t73.5 -96.5q129 125 277 125 q102 0 184 -71.5t82 -231.5q0 -139 -56 -287.5t-174 -260t-267 -111.5q-119 0 -197 92l-90 -359h102q57 0 58 -36q0 -18 -10.5 -45t-24.5 -33q-10 -4 -31 -4h-332q-49 0 -49 35zM489 307q0 -78 35 -138t117 -60q90 0 159.5 68.5t104.5 165.5t51.5 178t16.5 130q0 92 -40 135 t-104 43q-94 0 -169.5 -78.5t-106.5 -160.5q-2 -4 -17.5 -58.5t-31 -125t-15.5 -99.5z" />
<glyph unicode="q" horiz-adv-x="1011" d="M238 295q0 98 33.5 209.5t93 212t158 167t212.5 66.5q129 0 203 -100h2q25 37 60.5 66.5t54.5 29.5q29 0 28 -33q0 -6 -14 -67l-252 -1008q-6 -18 -14 -57t-15 -60h105q53 0 53 -38q0 -20 -9 -44t-19.5 -30t-34.5 -6h-373q-49 0 -49 35q0 10 4 34q8 33 21.5 41t37.5 8 h125l88 355q-117 -86 -233 -86q-104 0 -185 71.5t-81 233.5zM383 287q0 -98 44 -138t99 -40q82 0 161 69.5t118 171.5l6 23l15 59l20 73q10 38 16 72.5t6 53.5q0 74 -34.5 136t-118.5 62q-88 0 -158 -66.5t-104.5 -162.5t-52 -178t-17.5 -135z" />
<glyph unicode="r" horiz-adv-x="927" d="M150 635q0 35 46 140.5t115 148.5q39 27 90 26q55 0 106.5 -32.5t72.5 -102.5q131 135 270 135q88 0 145.5 -51t57.5 -131q0 -63 -31 -94t-70 -31q-29 0 -47 17.5t-18 44.5q0 39 37 75q-39 49 -95 49q-61 0 -116.5 -44t-95 -114.5t-64.5 -131t-43 -121.5 q-23 -70 -41 -149l-27.5 -123t-22.5 -83.5t-32.5 -56t-50.5 -16.5q-25 0 -40 15t-15 40q0 20 12 66l143 577q10 31 10 57q0 41 -21.5 61.5t-43.5 20.5q-35 0 -59.5 -45t-40 -100t-19.5 -61q-10 -12 -37 -13h-32q-43 0 -43 27z" />
<glyph unicode="s" horiz-adv-x="899" d="M160 190q0 63 31.5 93t68.5 30q31 0 49.5 -18.5t18.5 -44.5q0 -39 -39 -74q55 -68 180 -67q78 0 133 21.5t81 55t36 61t10 52.5q0 57 -42 87t-124 46.5t-98 22.5q-55 18 -94 67t-39 119q0 41 16.5 88t51 99.5t107.5 87t171 34.5q104 0 173 -49t69 -129q0 -57 -30 -86 t-65 -29q-27 0 -45 16.5t-18 43t29 63.5v2q-51 47 -136 47q-74 0 -120 -34.5t-57 -65.5t-11 -55q0 -53 41 -76t115.5 -37t111.5 -33q129 -66 129 -196q0 -31 -8 -69t-35.5 -89t-70.5 -91t-121 -67.5t-176 -27.5q-131 0 -212 56t-81 146z" />
<glyph unicode="t" horiz-adv-x="729" d="M178 854q0 61 31 78q10 6 33 6h200q88 356 97 373q4 6 10 12q29 29 61 29q25 0 41.5 -16.5t16.5 -39.5q0 -12 -23 -102l-43 -174l-22 -82h182q51 0 51 -35q0 -14 -8 -41.5t-23 -36.5q-8 -6 -30 -6h-201q-14 -68 -54 -221l-69 -269q-29 -116 -29 -136q0 -37 20.5 -59.5 t55.5 -22.5q59 0 114.5 52t92.5 128q12 29 21.5 34t52.5 5q53 0 53 -23q0 -18 -26.5 -67.5t-70.5 -106.5t-116 -101t-147 -44q-84 0 -136.5 54t-52.5 136q0 20 23 125l129 516h-181q-53 0 -53 35z" />
<glyph unicode="u" horiz-adv-x="1183" d="M150 633q0 33 33.5 104.5t108.5 142t163 70.5q74 0 120 -48t46 -122q0 -43 -71 -235.5t-71 -290.5q0 -145 135 -145q53 0 100.5 31.5t78 79.5t48 85t27.5 68q8 23 66.5 259t66.5 255q23 51 74 51q53 0 58 -51q2 -14 -9 -53l-141 -566q-14 -57 -14 -75q0 -41 22.5 -61.5 t44.5 -20.5q35 0 59.5 46t39 100t18.5 60q10 12 41 13h29q43 0 43 -25q0 -37 -46 -141.5t-114 -149.5q-41 -25 -92 -24q-129 0 -174 121q-123 -123 -252 -123q-102 0 -175 55t-73 186q0 115 70.5 314.5t70.5 220.5q0 66 -53 65q-41 0 -80 -43t-63 -110q-4 -10 -9.5 -26.5 t-7.5 -20.5l-6 -11.5t-13 -7.5t-18.5 -1t-31.5 -1q-49 0 -49 25z" />
<glyph unicode="v" horiz-adv-x="1011" d="M152 633q0 31 30.5 100.5t105 143t167.5 73.5q74 0 120 -48t46 -122q0 -47 -70 -233.5t-70 -282.5q0 -84 46 -119.5t110 -35.5q96 0 157.5 98t114.5 305q37 147 37 211q0 51 -15.5 88t-15.5 53q0 33 29 59.5t62 26.5q31 0 54 -33.5t23 -113.5q0 -92 -55 -303t-154 -350 q-113 -162 -262 -162q-109 0 -189.5 57t-80.5 193q0 113 69.5 308t69.5 218q0 66 -53 65q-20 0 -43 -10t-55.5 -55t-55.5 -119q-8 -25 -18 -31t-51 -6h-17q-36 0 -36 25z" />
<glyph unicode="w" horiz-adv-x="1468" d="M150 633q0 68 91 192.5t212 124.5q76 0 122 -48t46 -122q0 -43 -69 -231.5t-69 -278.5q0 -88 50.5 -124.5t119.5 -36.5q25 0 46.5 8t40 28.5t32.5 44t30.5 65.5t28 79t27.5 101l29 116l34 138l37 153q25 96 91 96q18 0 36.5 -14.5t18.5 -44.5q0 -23 -68.5 -284 t-68.5 -331q0 -86 46 -120.5t105 -34.5q86 0 137.5 90t108.5 307q39 162 39 217q0 47 -16.5 88t-16.5 53q0 31 27.5 58.5t62.5 27.5q31 0 54.5 -33.5t23.5 -113.5q0 -78 -41 -250t-86 -281q-61 -154 -138 -219t-177 -65q-178 0 -244 123h-2q-88 -123 -221 -123 q-119 0 -203 58t-84 198q0 113 69.5 305t69.5 217q0 29 -14 46t-39 17q-20 0 -43 -10t-55.5 -55t-55.5 -119q-8 -23 -18 -30t-45 -7q-37 0 -49 5.5t-12 19.5z" />
<glyph unicode="x" horiz-adv-x="1011" d="M127 170q0 66 31.5 96.5t70.5 30.5q29 0 47.5 -17.5t18.5 -46.5q0 -37 -39 -75q35 -49 88 -49q78 0 129 81q20 33 76.5 261.5t56.5 267.5q0 111 -114 110q-70 0 -127.5 -50t-83.5 -120q-16 -37 -24.5 -44t-33.5 -7h-30q-41 0 -41 24.5t24.5 75t68.5 105.5t115.5 96 t151.5 41q137 0 199 -98q102 98 211 98q84 0 139 -50t55 -130q0 -66 -30.5 -96.5t-69.5 -30.5q-29 0 -47.5 17.5t-18.5 44.5q0 39 37 75q-35 49 -86 49q-82 0 -131 -84q-20 -33 -76.5 -260t-56.5 -266q0 -111 117 -110q68 0 126 51t85 121q14 37 22 43t39 6h27q41 0 41 -23 q0 -25 -25 -74t-68 -105t-115.5 -98t-154.5 -42q-135 0 -196 98q-106 -96 -213 -96q-82 0 -138.5 50t-56.5 130z" />
<glyph unicode="y" horiz-adv-x="1069" d="M152 633q0 23 20.5 72t56 105t97 98t129.5 42q76 0 122 -49t46 -121q0 -43 -72 -235.5t-72 -290.5q0 -80 40 -112.5t95 -32.5q82 0 157 82.5t112 230.5q117 465 121 471q27 45 71 45q25 0 41.5 -15.5t16.5 -39.5q0 -12 -11 -54l-196 -788q-27 -98 -33 -113 q-59 -145 -189.5 -241.5t-265.5 -96.5q-92 0 -151.5 47.5t-59.5 122.5q0 59 32 89t69 30q63 0 67 -61q0 -31 -33 -72q39 -35 97 -35q90 0 174 66.5t127 171.5q12 31 35 119q-104 -80 -207 -80t-175.5 55t-72.5 186q0 121 70.5 315.5t70.5 221.5q0 29 -14 46t-39 17 q-92 0 -156 -188q-8 -23 -20 -28t-53 -5q-47 0 -47 25z" />
<glyph unicode="z" horiz-adv-x="899" d="M109 8q0 12 26 53q72 115 178.5 226.5t232.5 231.5t199 204q-33 12 -96 51t-108 39q-76 0 -125 -72q-4 -8 -9.5 -17t-7.5 -12t-6 -7.5t-11 -4.5t-16.5 -1t-27.5 -1q-53 0 -53 23q0 51 83 140t197 89q59 0 135 -57t109 -57t64.5 57t68.5 57h39q37 0 37 -20 q0 -41 -119 -182q-82 -100 -262 -273.5t-248 -249.5q59 -4 134 -51t122 -47q63 0 121.5 44t85.5 114q2 4 5 12t4 10t4 7t7.5 6.5l10.5 3.5t15 2h22q59 0 59 -25t-25.5 -75t-69.5 -103t-115 -93t-146 -40q-61 0 -136 56t-120 56q-35 0 -67 -21.5t-55.5 -51t-25.5 -31.5 q-10 -10 -39 -10h-22q-49 0 -49 20z" />
<glyph unicode="{" d="M281 477q0 12 9 46t19 42q4 2 54.5 10.5t106.5 21.5t118.5 57t91.5 112q10 23 125 483q33 133 135 203q127 84 305 84h58q37 0 36 -25q0 -10 -8 -43.5t-14 -40.5q-8 -10 -32.5 -12t-71 -4t-87.5 -10q-27 -6 -49 -13.5t-39.5 -16.5t-31 -17t-22.5 -20.5t-15 -19.5 t-11.5 -21.5t-7.5 -18.5t-4 -19l-4 -14q-121 -477 -129 -500q-70 -154 -297 -231q90 -29 135 -90.5t45 -132.5q0 -39 -65.5 -295t-65.5 -277q0 -100 258 -106q35 -2 35 -25q0 -6 -12 -55q-6 -27 -15.5 -34t-37.5 -7h-29q-188 0 -264 64.5t-76 146.5q0 41 66.5 292t66.5 285 q0 80 -68.5 123t-154.5 52q-4 0 -12.5 1t-12.5 1t-10 1t-10 4t-6 8t-2 11z" />
<glyph unicode="|" horiz-adv-x="671" d="M178 -467q0 6 6 37l478 1905q12 59 47 59q12 0 25.5 -11.5t13.5 -33.5q0 -6 -82 -334l-400 -1601q-18 -63 -49 -64q-39 0 -39 43z" />
<glyph unicode="}" d="M41 -487q0 10 8 43.5t14 40.5q8 10 34 12t72 3t85 9q27 6 49.5 13.5t39.5 16.5t30.5 17t23 21.5t15.5 20.5t11 21.5t7 18.5t4 19l4 14q119 471 131 502q72 156 295 229q-76 25 -127 81t-51 142q0 41 65.5 296t65.5 276q0 100 -260 106q-35 2 -35 25q0 6 13 55q8 29 17 35 t36 6h35q182 0 257.5 -64.5t75.5 -146.5q0 -37 -65.5 -292t-65.5 -285q0 -80 68 -123t151 -52q2 0 14.5 -1t16.5 -1t11.5 -3t9.5 -8t2 -13q0 -14 -9.5 -48t-19.5 -40q-6 -6 -17.5 -7t-37 -3.5t-58.5 -8.5q-193 -45 -256 -180q-14 -31 -74.5 -281.5t-76.5 -285.5 q-47 -96 -161 -150.5t-253 -54.5h-55q-39 0 -39 25z" />
<glyph unicode="~" horiz-adv-x="1353" d="M532 1229q0 12 27 45q147 147 270 147q68 0 184.5 -54t168.5 -54q68 0 139.5 53t79.5 53q16 0 40.5 -23.5t24.5 -40t-47 -63.5q-137 -129 -250 -129q-74 0 -185.5 54.5t-168.5 54.5q-51 0 -98 -26.5t-78 -53.5t-43 -27q-16 0 -40 24t-24 40z" />
<glyph unicode="&#xa1;" horiz-adv-x="671" d="M143 -336q0 14 11 47l260 858q12 45 20 55.5t31 10.5h43q39 0 39 -25q0 -10 -4 -26l-168 -850l-2 -17q-4 -16 -6 -22l-9 -24q-6 -17 -12 -27.5t-17.5 -23.5t-24.5 -20.5t-31.5 -13.5t-39.5 -6q-37 0 -63.5 23.5t-26.5 60.5zM453 897q0 47 38.5 86t88.5 39 q39 0 65.5 -24.5t26.5 -65.5q0 -45 -39 -85t-90 -40q-37 0 -63.5 25.5t-26.5 64.5z" />
<glyph unicode="&#xa2;" d="M229 336q0 88 32 184t96.5 190.5t179 162t260.5 81.5q31 139 43 165t49 26h14q51 0 51 -37q0 -14 -5 -35l-14 -55q-9 -35 -15 -62q174 -4 231 -36q49 -29 49 -80q0 -41 -29.5 -72t-68.5 -31q-63 0 -64 66q0 14 2 20q-68 8 -153 8l-178 -716q63 4 114 26.5t75 47t45.5 51 t25.5 30.5q14 8 32 9h39q37 0 37 -21q0 -31 -76 -111q-127 -131 -323 -155q-31 -137 -44 -164t-48 -27h-17q-49 0 -49 35q0 10 35 156q-154 16 -240 106.5t-86 237.5zM383 362q0 -195 207 -237l174 700q-111 -18 -191.5 -77.5t-118.5 -134t-54.5 -137.5t-16.5 -114z" />
<glyph unicode="&#xa3;" horiz-adv-x="1677" d="M190 96q0 76 81 132.5t208 56.5q45 0 127 -19l23 62l82 323h-125q-41 0 -41 25q0 10 14 67q8 27 41 29h141q74 307 101 381q68 170 186.5 247t235.5 77q119 0 190.5 -81t71.5 -214q0 -195 -111 -195q-33 0 -49 18.5t-16 45.5q0 33 18 55t33 29q0 4 1 12t1 12 q0 90 -42 143.5t-118 53.5q-86 0 -158.5 -57.5t-111.5 -172.5q-18 -47 -92 -354h157q41 0 53.5 -4t12.5 -18q0 -12 -6 -41q-10 -39 -17.5 -48.5t-36.5 -9.5h-194q-78 -340 -127 -432q20 -8 73.5 -33.5l86 -40t81 -28t89.5 -13.5q123 0 188 152q10 31 20.5 38t41.5 7h28 q43 0 35 -35q-20 -92 -124.5 -185t-250.5 -93q-74 0 -152.5 28.5t-131 56t-64.5 27.5q-8 0 -46 -27.5t-106.5 -56t-150.5 -28.5q-78 0 -114 33.5t-36 74.5zM317 113q29 -4 45 -4q76 0 152 45q-51 14 -94 14q-76 0 -103 -55z" />
<glyph unicode="&#xa4;" horiz-adv-x="1693" d="M121 -63q0 20 55 63q193 160 244 195q-61 102 -62 241q0 152 71 315.5t198 274.5q-164 221 -168 236q-2 4 -2 10q0 14 11 26.5t26 12.5q20 0 47 -31l69 -93l80 -108q215 139 449 140q244 0 383 -140h2l254 205q43 27 53 27q16 0 27.5 -12.5t11.5 -26.5q0 -8 -3 -14.5 t-13.5 -17.5t-22.5 -21l-38 -31l-53 -41l-74 -57l-93 -76q59 -123 59 -242q0 -150 -70.5 -315.5t-197.5 -276.5l70 -94l51 -67l29 -39q13 -18 17.5 -26.5t4.5 -16.5q0 -16 -11.5 -27.5t-27.5 -11.5q-20 0 -47 30l-150 201q-219 -141 -448 -141q-242 0 -383 141h-2l-252 -203 q-39 -29 -55 -28q-14 0 -26.5 11.5t-12.5 27.5zM440 434q0 -104 38 -179t100.5 -113t130 -55t141.5 -17q166 0 303 66.5t221 172t130 226t46 239.5q0 104 -37.5 179t-101 113t-130.5 54.5t-140 16.5q-166 0 -303.5 -66.5t-221.5 -172t-130 -226.5t-46 -238z" />
<glyph unicode="&#xa5;" horiz-adv-x="1615" d="M250 465q0 59 80 59h536q4 25 4 31q0 16 -7 35.5t-35.5 87t-57.5 147.5h-334q-80 0 -80 60q0 61 84 61h281l-131 334h-123q-55 0 -55 37q0 31 16 63q14 18 49 19h371q51 0 51 -35q0 -12 -8 -37q-6 -33 -19.5 -40t-40.5 -7h-71l131 -334h287q33 0 43 6t32 31l265 297h-60 q-47 0 -47 37q0 45 23 72q12 10 43 10h348q45 0 45 -35q0 -45 -21 -70q-10 -14 -53 -14h-100q-23 0 -34 -6t-40 -39l-258 -289h248q29 0 43 -2q45 -14 45 -57q0 -61 -80 -62h-315q-4 0 -9.5 1t-7.5 1q-25 0 -46 -19.5t-112 -121.5l-79 -90q-35 -39 -41 -72h497q49 0 68 -18 q18 -16 18 -43q0 -59 -77 -60h-537l-72 -282h117q18 0 28.5 -2t18.5 -10.5t8 -26.5q0 -23 -9 -46.5t-21 -29.5q-8 -6 -33 -6h-404q-49 0 -49 35l6 37q8 31 21.5 40t36.5 9h139l70 282h-500q-86 1 -86 62zM940 825l51 -133l123 133h-174z" />
<glyph unicode="&#xa6;" horiz-adv-x="444" d="M63 -469q0 14 11 49l147 596l9.5 39l8.5 35t8 28.5t9 25.5t10 17.5t13.5 12.5t15.5 4q37 0 37 -43q0 -18 -6 -43l-170 -676q-16 -86 -54 -86q-16 0 -27.5 12.5t-11.5 28.5zM362 727q0 8 11 49l168 672q0 2 3 18.5t6 23.5t9 19.5t14.5 18.5t20.5 6q14 0 26.5 -13.5 t12.5 -29.5q0 -6 -10 -47l-168 -676q-2 -4 -6.5 -21.5t-6.5 -23.5t-8 -17.5t-14 -15.5t-19 -4q-16 0 -27.5 12.5t-11.5 28.5z" />
<glyph unicode="&#xa7;" horiz-adv-x="1011" d="M178 -195q0 70 27.5 98.5t60.5 28.5q27 0 42.5 -15t15.5 -38q0 -14 -10.5 -36.5t-10.5 -32.5q0 -33 35 -66t90 -33q106 0 189 85t83 175q0 29 -12 55.5t-26.5 43t-41 35t-41 26.5t-43 21.5l-32.5 15.5q-190 100 -191 281q0 109 66.5 210t167.5 154q-90 104 -90 211 q0 147 122.5 278.5t278.5 131.5q98 0 162.5 -59.5t64.5 -155.5q0 -66 -26.5 -96.5t-61.5 -30.5q-57 0 -57 53q0 14 9 34.5t9 37.5q0 35 -33.5 65.5t-90.5 30.5q-100 0 -186.5 -83t-86.5 -177q0 -29 12.5 -56.5t30 -46t43 -36t43 -26.5t42 -19.5t26.5 -12.5 q78 -41 135 -110.5t57 -170.5q0 -109 -66.5 -210t-166.5 -154q90 -104 90 -211q0 -147 -123 -278.5t-278 -131.5q-98 0 -163 59.5t-65 155.5zM418 479q0 -80 76.5 -134t115.5 -54q66 0 151 80t85 174q0 80 -78 134t-115 54q-66 0 -150.5 -79t-84.5 -175z" />
<glyph unicode="&#xa8;" d="M573 1274q0 47 40 86t89 39q39 0 66 -25.5t27 -64.5q0 -51 -41 -88t-88 -37q-39 0 -66 24.5t-27 65.5zM973 1274q0 51 41 88t86 37q41 0 66.5 -26.5t25.5 -63.5q0 -47 -39 -86t-90 -39q-39 0 -64.5 24.5t-25.5 65.5z" />
<glyph unicode="&#xa9;" horiz-adv-x="2377" d="M723 358q0 248 196.5 447t499.5 199q186 0 305 -125q100 111 113 118q8 4 21 4q29 0 28 -24l-86 -348q-10 -33 -47 -33h-29q-35 0 -41 8t-6 49q0 90 -52 160t-171 70q-145 0 -260 -47.5t-181.5 -124t-100 -162.5t-33.5 -174q0 -104 59 -169t137 -86.5t176 -21.5 q129 0 222.5 69t125.5 157q10 29 19.5 35t38.5 6q43 0 55 -4.5t12 -18.5q0 -12 -6 -31q-49 -145 -203.5 -239.5t-336.5 -94.5q-199 0 -327 96.5t-128 284.5zM252 211q0 186 59.5 386t199.5 407.5t341 341.5q322 213 717 213q111 0 215 -19.5t214.5 -72t192.5 -133.5 t134.5 -215t52.5 -306q0 -244 -105.5 -511t-302.5 -466q-385 -371 -909 -371q-115 0 -222.5 20.5t-217 75t-189.5 135.5t-130 214t-50 301zM334 209q0 -154 46 -272.5t118.5 -190.5t171 -118t193.5 -63.5t198 -17.5q250 0 473 92.5t404.5 284t277.5 461.5q80 231 80 430 q0 154 -46 272.5t-118 190.5t-171 118t-193.5 63.5t-196.5 17.5q-387 0 -699.5 -219.5t-455.5 -616.5q-82 -225 -82 -432z" />
<glyph unicode="&#xaa;" horiz-adv-x="1011" d="M70 626.5q0 20.5 14 37t37 20.5q12 2 39 2h645q4 0 16.5 1t18.5 1q84 0 84 -61.5t-78 -61.5q-4 0 -9.5 1t-7.5 1h-688q-41 0 -56 19.5t-15 40zM221 1010q0 115 46 235.5t145.5 211.5t224.5 91q90 0 151 -61h3q29 33 65 33q57 0 57 -62q0 -6 -104 -428q-12 -45 -12 -69 q0 -39 20.5 -60.5t44.5 -21.5q35 0 59.5 45t39 100t20.5 61q10 14 51 15q61 0 61.5 -26.5t-36.5 -121.5q-82 -195 -215 -194q-113 0 -166 100q-113 -100 -230 -100q-86 0 -155.5 58.5t-69.5 193.5zM367 1006q0 -127 104 -127q59 0 117.5 51t85.5 123q6 16 29.5 109t23.5 120 q0 53 -26.5 99t-86.5 46q-70 0 -122 -56t-77.5 -134t-36.5 -138t-11 -93z" />
<glyph unicode="&#xab;" horiz-adv-x="1241" d="M399 469q0 4 1 8t7 8l11 10q6 5 18 14l26 19l36 29l47 37l177 149q79 70 110.5 103t57 56.5t39 29.5t34.5 6h28q41 0 41 -16q0 -27 -199.5 -208.5t-293.5 -246.5q94 -127 159.5 -235.5t87 -154.5t21.5 -57q0 -20 -39 -20h-35q-12 0 -19 2t-12.5 4t-12.5 13l-13 22 q-6 10 -19.5 36.5l-27.5 51.5q-55 96 -115 177l-87 117q-28 36 -28 46zM745 469q0 12 33 37l84 69q92 74 191 170l34 34l42 40q17 16 24 21q12 8 43 8h25q43 0 43 -17v-8l-13 -18l-110 -109q-176 -164 -267 -229q117 -156 195 -317q14 -20 14 -39q-2 -20 -47 -21h-26 q-20 0 -35 8q-10 10 -23 35l-30 62q-66 113 -119 186q-10 16 -22.5 32.5t-19.5 24.5t-11.5 16.5t-4.5 14.5z" />
<glyph unicode="&#xac;" horiz-adv-x="1468" d="M348 731q0 41 66 41h1007q59 0 60 -45q0 -10 -115 -469q-18 -63 -49 -63q-16 0 -27.5 12t-11.5 24q0 14 17 83l46 184l48 192h-977q-64 0 -64 41z" />
<glyph unicode="&#xad;" horiz-adv-x="444" d="M182 440q0 39 21 76q12 20 45 21h440q53 0 53 -37q0 -14 -8 -35q-8 -27 -10 -35t-14.5 -17.5t-34.5 -9.5h-441q-51 0 -51 37z" />
<glyph unicode="&#xae;" horiz-adv-x="2377" d="M602 37q0 12 8 39.5t23 36.5q10 8 29 8h141l184 739h-115q-55 0 -55 35q0 66 33 80q10 4 31 4h444q182 0 272 -25q199 -57 199 -202q0 -166 -250 -275q68 -55 68 -135q0 -35 -15.5 -96.5t-15.5 -81.5q0 -66 84 -66q37 0 59.5 23.5t36 52.5t21.5 35q10 6 51 6q49 0 49 -35 q0 -49 -64.5 -126t-168.5 -77q-86 0 -156 38t-70 124q0 39 18.5 103.5t18.5 87.5q0 100 -245 100h-191l-78 -309h115q20 0 29.5 -2t17.5 -10.5t8 -26.5q0 -82 -65 -82h-402q-49 0 -49 37zM1057 551h198q221 0 310 61q74 51 73 119q0 129 -297 129h-208zM252 211 q0 186 59.5 386t199.5 407.5t341 341.5q322 213 717 213q111 0 215 -19.5t214.5 -72t192.5 -133.5t134.5 -215t52.5 -306q0 -244 -105.5 -511t-302.5 -466q-385 -371 -909 -371q-115 0 -222.5 20.5t-217 75t-189.5 135.5t-130 214t-50 301zM334 209q0 -154 46 -272.5 t118.5 -190.5t171 -118t193.5 -63.5t198 -17.5q250 0 473 92.5t404.5 284t277.5 461.5q80 231 80 430q0 154 -46 272.5t-118 190.5t-171 118t-193.5 63.5t-196.5 17.5q-387 0 -699.5 -219.5t-455.5 -616.5q-82 -225 -82 -432z" />
<glyph unicode="&#xaf;" d="M526 1335q0 39 19 70q14 18 43 18h639q47 0 47 -37q0 -4 -2 -18t-9.5 -34.5t-17.5 -26.5q-6 -4 -57 -9h-615q-47 0 -47 37z" />
<glyph unicode="&#xb0;" horiz-adv-x="784" d="M451 1118q0 109 78.5 195t201.5 86q84 0 136.5 -46t52.5 -126q0 -109 -79 -195t-202 -86q-84 0 -136 46t-52 126zM532 1120q0 -92 107 -92q88 0 142.5 63.5t54.5 135.5q0 90 -105 90q-88 0 -143.5 -62.5t-55.5 -134.5z" />
<glyph unicode="&#xb1;" horiz-adv-x="1695" d="M178 41q0 41 58 41h589l140 559h-564q-63 0 -63 41q0 43 61 43q4 0 9.5 -1t7.5 -1h569l143 571q8 70 50 70q18 0 28.5 -13.5t10.5 -29.5q0 -18 -22 -100l-60 -231q-39 -148 -66 -267h563q63 0 63.5 -41t-61.5 -41h-585l-140 -559h561q66 0 66 -41t-59 -41h-1239 q-60 0 -60 41z" />
<glyph unicode="&#xb2;" horiz-adv-x="1011" d="M344 723q0 31 35 98.5t80 116.5q61 68 118.5 101.5t149.5 63.5t147 54q145 66 146 158q0 115 -170 123q6 -31 6 -37q0 -70 -80 -130.5t-188 -62.5q-63 0 -105.5 33t-42.5 84q0 90 103.5 162t290 72t261 -71t74.5 -163q0 -96 -76.5 -167t-279.5 -140q-10 -4 -37.5 -13.5 t-35 -12.5t-28 -10t-28.5 -11l-25 -13q-16 -8 -26 -16t-24.5 -18.5t-30.5 -24.5q66 -6 156.5 -29.5t146.5 -23.5q131 0 184 74q6 8 12 20t9.5 15t14.5 6.5t34 3.5q37 0 49 -5.5t12 -19.5q0 -63 -100.5 -151.5t-239.5 -88.5q-61 0 -163.5 39t-147.5 39q-29 0 -47.5 -14 t-30.5 -33.5t-16 -23.5q-12 -8 -43 -9h-29q-35 0 -35 25zM565 1352q0 -23 45 -23q88 0 121 53q-29 18 -29 31q0 8 13 23q-61 -8 -98 -26.5t-44.5 -32t-7.5 -25.5z" />
<glyph unicode="&#xb3;" horiz-adv-x="1011" d="M381 942q0 88 31.5 124t72.5 36q66 0 66 -64q0 -45 -47 -82q8 -147 164 -147q264 0 264 164q0 25 -8.5 44t-21.5 29.5t-29.5 18.5t-32 10t-28.5 4t-21.5 0t-8.5 0h-94q-37 0 -37 27q0 2 4 22q12 53 20.5 62.5t45.5 9.5h67q180 0 234 86q18 33 18 64q0 39 -29.5 59.5 t-61 24.5t-83.5 6q-20 -76 -78.5 -138.5t-142.5 -62.5q-61 0 -101 29.5t-40 74.5q0 20 9 45t30.5 57t73 59.5t122.5 39.5q-4 25 17 45q51 45 69 45q23 0 43 -75q176 0 252 -64q59 -49 60 -131q0 -141 -160 -231q61 -61 61 -152q0 -133 -121.5 -213t-326.5 -80 q-125 0 -188.5 75t-63.5 179zM625 1362q12 -2 32 -2q57 0 86 74q-93 -15 -118 -72z" />
<glyph unicode="&#xb4;" d="M743 1135q0 14 14.5 26.5t86.5 59.5l131 86q102 68 122.5 79t37.5 11q27 0 43 -18.5t16 -43.5q0 -35 -44 -65.5t-312 -192.5q-33 -16 -41 -16q-20 0 -37 29t-17 45z" />
<glyph unicode="&#xb5;" d="M63 -365q0 16 9 46l295 1185q23 82 86 82q23 0 40 -14t17 -39q0 -23 -70.5 -295t-70.5 -336q0 -156 157 -155q61 0 115.5 35.5t90.5 89t55.5 93.5t29.5 70q6 14 62.5 245.5t66.5 248.5q25 47 72 47q23 0 40 -14.5t17 -38.5q0 -8 -10 -56l-141 -567q-12 -45 -13 -69 q0 -41 22.5 -61.5t45.5 -20.5q35 0 59.5 46t39 100t18.5 60q10 12 47 13h22q43 0 43 -25q0 -23 -28.5 -100.5t-67.5 -128.5q-63 -86 -156 -86q-55 0 -105 30.5t-73 102.5q-131 -135 -276 -135q-109 0 -201 61q-96 -389 -102 -407q-20 -61 -80 -62q-25 0 -40.5 16t-15.5 39z " />
<glyph unicode="&#xb6;" horiz-adv-x="1353" d="M389 858q0 186 156.5 352t380.5 203q43 8 131 8h469q61 0 61 -41q0 -39 -57 -41h-121l-414 -1654h95q61 0 61 -43q0 -39 -57 -39h-527q-57 0 -57 41t61 41h115l197 788q-209 10 -351.5 113.5t-142.5 271.5zM772 -315h139l414 1654h-141z" />
<glyph unicode="&#xb7;" horiz-adv-x="671" d="M354 504q0 47 40 88t91 41q39 0 64.5 -25.5t25.5 -62.5q0 -47 -40.5 -88t-92.5 -41q-37 0 -62.5 24.5t-25.5 63.5z" />
<glyph unicode="&#xb8;" horiz-adv-x="1011" d="M174 -365q0 6 2 21.5t12.5 36t26.5 24.5q6 2 33 2h51q256 4 256 97q0 51 -92 61q-47 2 -47 35q0 18 14 72q8 37 12 48t17.5 20t38.5 9h28q51 0 52 -32q0 -8 -9 -49q127 -39 127 -148q0 -66 -45 -122t-135 -82.5t-293 -26.5q-49 -1 -49 34z" />
<glyph unicode="&#xb9;" horiz-adv-x="1011" d="M408 748q0 18 9 44.5t23 32.5q10 6 33 6h195l125 498q-119 -61 -220 -61q-51 0 -51 39q0 43 23 71q6 6 59 10.5t131 34t150 97.5q37 33 55 32q33 0 33 -36q0 -14 -33 -150l-133 -535h160q47 0 47 -36q0 -43 -19 -66q-12 -18 -47 -18h-479q-61 0 -61 37z" />
<glyph unicode="&#xba;" horiz-adv-x="1011" d="M70 627q0 59 80 59h632q84 0 84 -59q0 -61 -78 -62q-2 0 -7 1t-7 1h-604q-4 0 -12 -1t-13 -1q-43 0 -59 21t-16 41zM225 1030q0 115 50.5 230.5t162 201.5t256.5 86q129 0 205 -72.5t76 -199.5q0 -115 -51.5 -230.5t-162 -201.5t-255.5 -86q-129 0 -205 72.5t-76 199.5z M373 1030q0 -82 44 -117.5t109 -35.5q88 0 152.5 50t94.5 122.5t42 130t12 96.5q0 152 -155 151q-84 0 -146.5 -47t-93.5 -116.5t-45 -129t-14 -104.5z" />
<glyph unicode="&#xbb;" horiz-adv-x="1241" d="M209 109q0 20 146.5 156t242.5 206q-74 94 -142.5 213t-68.5 143q0 20 57 21q18 0 27 -1l16 -2q8 -1 14.5 -10.5t10.5 -17.5t16.5 -29.5t22.5 -42.5q47 -86 93 -150l64 -88q17 -24 17 -36q0 -14 -31 -39q-121 -96 -209 -176t-113.5 -108.5t-48 -43t-53.5 -14.5 q-61 1 -61 19zM440 18q0 8 6.5 17.5t21.5 23.5l21 21q33 37 154 146.5t291 246.5q-92 113 -180 266.5t-88 182.5q0 16 43 16h30q12 0 19.5 -2t12.5 -4t11 -13l13 -22q6 -10 19 -35.5t28 -50.5q61 -102 119.5 -184t84 -114t25.5 -42q0 -4 -1 -8t-6 -9l-11 -10.5t-20 -15.5 l-25 -20q-12 -10 -36 -28l-46 -36l-175 -148.5t-109 -101.5l-57 -57q-26 -25 -40.5 -31t-36.5 -6h-27q-41 0 -41 18z" />
<glyph unicode="&#xbc;" horiz-adv-x="1011" d="M100 72q0 27 31 37t107.5 29.5t150.5 56.5q66 33 111 71.5t59 62t27 60.5l14 35q29 43 70 43q8 0 32 -4q23 59 76 59q25 0 42.5 -16.5t17.5 -40.5l-97 -404q61 -2 86 -2t43.5 -7t20.5 -9t16 -20q25 -39 11 -56q-23 -27 -207 -26q0 -2 -16 -68l-33 -138q-18 -73 -25 -83 q-20 -49 -72 -49q-25 0 -42 15t-17 44l69 291q-150 20 -192 22q-59 2 -102 20.5t-55.5 18.5t-33 -6t-30.5 -6q-20 0 -41 27t-21 43zM211 569q0 41 59 41h750q63 0 63 -41t-59 -41h-754q-59 0 -59 41zM403 729q0 61 33 78q14 6 31 6h197l129 516q-125 -59 -220 -59 q-51 0 -51 37q0 53 25 73q6 6 59 11.5t130 34t147 92.5q39 35 57 34q35 0 35 -36q0 -12 -43 -189l-88 -344l-43 -170h162q47 -4 47 -37q0 -43 -19 -65q-14 -18 -45 -19h-483q-60 0 -60 37zM438 94l166 -22l43 168q-96 -93 -209 -146z" />
<glyph unicode="&#xbd;" horiz-adv-x="1011" d="M63 -397q0 23 23 61q43 80 127 138.5t171 92t169 69.5t134 95.5t52 143.5q0 145 -194 145q-94 0 -179 -74.5t-122 -197.5q12 4 66.5 14t80 29.5t43.5 66.5q-29 35 -28 41q0 14 36.5 44t53.5 30q8 0 21 -10t25.5 -34t12.5 -52q0 -78 -84 -158t-201 -80q-82 0 -115.5 28 t-33.5 60q0 43 32.5 110.5t87 136.5t143.5 118t185 49q74 0 140.5 -19.5t122 -82t55.5 -160.5q0 -82 -36 -146.5t-102.5 -109.5t-128 -74t-149.5 -64.5t-129 -56.5q16 -2 114.5 -17t135.5 -15q61 0 112.5 35.5t74 70.5t36.5 70q12 33 21.5 41t35.5 8h33q37 0 37 -25 q0 -27 -25.5 -80t-69.5 -114.5t-118 -106.5t-156 -45q-57 0 -163.5 31t-149.5 31q-45 0 -68.5 -31t-48.5 -31h-41q-39 0 -39 25zM211 569q0 41 59 41h752q61 0 61 -41t-59 -41h-754q-59 0 -59 41zM403 729q0 14 9.5 42t23.5 36q14 6 33 6h195l129 516q-125 -59 -218 -59 q-53 0 -53 37q0 53 25 73q6 6 59 11.5t131 34t148 92.5q35 35 55 34q35 0 35 -36l-172 -703h160q47 0 47 -37q0 -39 -17 -65q-12 -18 -47 -19h-483q-60 0 -60 37z" />
<glyph unicode="&#xbe;" horiz-adv-x="1011" d="M102 76q0 16 31 24.5l104.5 30t147.5 57.5q55 27 95 55.5t60.5 57.5t31 48.5t18.5 44t10 28.5q27 45 74 45q18 0 31 -4q25 59 77 59q23 0 40.5 -15t17.5 -40q0 -2 -99 -406q29 -2 52.5 -4t39 -6t25.5 -6t17.5 -8t9.5 -8t6 -9l4 -6q25 -31 25 -43q0 -14 -23 -16 q-6 -2 -82 -8t-104 -6v-2l-19 -70l-35 -139q-18 -72 -22 -82q-27 -45 -72 -45q-27 0 -42 16t-15 43q0 8 69 291q-78 12 -134 18t-71.5 6t-31.5 2.5t-23.5 5.5l-38.5 15q-37 14 -49 14q-14 0 -33.5 -6t-25.5 -6q-12 0 -31 21q-35 39 -35 53zM211 569q0 41 59 41h752 q61 0 61 -41t-59 -41h-754q-59 0 -59 41zM377 922q0 162 104 161q33 0 50.5 -18t17.5 -45q0 -45 -49 -82q10 -150 157 -150q272 0 273 175q0 104 -142 108h-69q-43 0 -56.5 3t-13.5 20q0 10 10 47q8 35 17.5 42t42.5 7h61q135 0 193 41q68 45 67 117q0 86 -163 92h-48 q-100 -2 -144 -21.5t-60 -62.5q8 -2 23.5 -3t19.5 -2t13 -5.5t12 -12.5t6 -21.5t8 -33.5l6 22q4 -16 12 -22l14 14l-2 -8q35 8 49 8q18 0 28.5 -11t2.5 -24q-12 -25 -100 -24l2 -6h-2l-2 6h-10q-16 -31 -33 -37q-8 -4 -15.5 1t-5.5 13q2 10 15 23h-2q-162 0 -162 106 q0 80 96 150t289 70q162 0 227.5 -60.5t65.5 -136.5q0 -143 -164 -240q63 -63 63 -153q0 -141 -128 -220t-324 -79q-121 0 -185.5 74t-64.5 178zM438 94l168 -22l43 172q-96 -94 -211 -148v-2z" />
<glyph unicode="&#xbf;" d="M186 -178q0 43 9.5 84t23.5 72.5t35.5 62.5t40 51.5t43 43t39.5 32.5l33 22l18 13l79 52l65 44l50 34q28 19 40 29.5t26 25.5t18.5 26.5t8.5 26t4 32.5q0 41 -37 41q-31 0 -65.5 -22.5t-53.5 -59.5q-10 -20 -19 -24.5t-42 -4.5h-13q-49 0 -49 23q0 51 80 130t195 79 q61 0 97 -38t36 -101q0 -92 -55.5 -166t-133.5 -123l-155 -98q-78 -49 -133.5 -116t-55.5 -151q0 -68 45.5 -105.5t120.5 -37.5q104 0 197.5 71.5t138.5 172.5q-18 27 -18 47q0 37 28.5 65.5t67.5 28.5q29 0 48.5 -17.5t19.5 -46.5q0 -31 -21.5 -83t-64.5 -114.5 t-101.5 -116.5t-142.5 -91t-174 -37q-125 0 -199 64.5t-74 179.5zM682 897q0 47 39 86t88 39q39 0 65.5 -24.5t26.5 -65.5q0 -45 -39 -85t-90 -40q-37 0 -63.5 25.5t-26.5 64.5z" />
<glyph unicode="&#xc0;" horiz-adv-x="1615" d="M954 1714q0 29 22.5 53.5t53.5 24.5q18 0 47 -15l242 -132q41 -27 41 -45.5t-23.5 -49t-44.5 -30.5q-8 0 -16 3t-30 13l-46 23l-79 37l-113 55q-54 24 -54 63zM129 37q0 12 8 39.5t23 36.5q4 4 53 8h111l741 1251q20 33 37.5 43t48.5 10h23q27 0 39 -10t14 -20.5t4 -32.5 l84 -899q14 -125 33 -342h106q57 0 57 -37q0 -14 -8 -42t-22 -36q-10 -6 -33 -6h-371q-49 0 -49 35q0 16 6 35q8 35 20.5 43t43.5 8h98l-31 321h-524l-190 -321h81q20 0 29.5 -1t19 -11.5t9.5 -28.5q0 -20 -9.5 -44t-21.5 -30q-10 -6 -33 -6h-344q-53 0 -53 37zM715 563h440 l-59 641z" />
<glyph unicode="&#xc1;" horiz-adv-x="1615" d="M993 1595.5q0 20.5 29 37t174 77.5l145 62q27 18 62 18q25 0 42 -17.5t17 -41.5q0 -10 -2 -19.5t-9 -17.5t-15.5 -15.5t-24.5 -15.5l-32 -15q-15 -7 -43 -18l-52 -19l-65 -25l-78 -30q-90 -37 -105 -36q-25 0 -34 27.5t-9 48zM129 37q0 12 8 39.5t23 36.5q4 4 53 8h111 l741 1251q20 33 37.5 43t48.5 10h23q27 0 39 -10t14 -20.5t4 -32.5l84 -899q14 -125 33 -342h106q57 0 57 -37q0 -14 -8 -42t-22 -36q-10 -6 -33 -6h-371q-49 0 -49 35q0 16 6 35q8 35 20.5 43t43.5 8h98l-31 321h-524l-190 -321h81q20 0 29.5 -1t19 -11.5t9.5 -28.5 q0 -20 -9.5 -44t-21.5 -30q-10 -6 -33 -6h-344q-53 0 -53 37zM715 563h440l-59 641z" />
<glyph unicode="&#xc2;" horiz-adv-x="1615" d="M893 1565q0 16 29 39l301 217q25 14 34 14q18 0 48 -35l137 -153q43 -49 50 -61.5t7 -20.5q0 -18 -28.5 -45t-47 -27t-80.5 72q-90 104 -108 129q-262 -195 -277 -199q-4 -2 -8 -2q-20 0 -38.5 27t-18.5 45zM129 37q0 12 8 39.5t23 36.5q4 4 53 8h111l741 1251 q20 33 37.5 43t48.5 10h23q27 0 39 -10t14 -20.5t4 -32.5l84 -899q14 -125 33 -342h106q57 0 57 -37q0 -14 -8 -42t-22 -36q-10 -6 -33 -6h-371q-49 0 -49 35q0 16 6 35q8 35 20.5 43t43.5 8h98l-31 321h-524l-190 -321h81q20 0 29.5 -1t19 -11.5t9.5 -28.5q0 -20 -9.5 -44 t-21.5 -30q-10 -6 -33 -6h-344q-53 0 -53 37zM715 563h440l-59 641z" />
<glyph unicode="&#xc3;" horiz-adv-x="1615" d="M823 1647q0 16 35 51q133 129 236 129q61 0 154 -48t138 -48q55 0 118 46t71 46q18 0 41.5 -23.5t23.5 -40.5q0 -10 -4 -17t-15 -19l-13 -13q-137 -129 -238 -129q-61 0 -154.5 48t-138.5 48q-57 0 -119.5 -47t-70.5 -47q-18 0 -41 25t-23 39zM129 37q0 12 8 39.5 t23 36.5q4 4 53 8h111l741 1251q20 33 37.5 43t48.5 10h23q27 0 39 -10t14 -20.5t4 -32.5l84 -899q14 -125 33 -342h106q57 0 57 -37q0 -14 -8 -42t-22 -36q-10 -6 -33 -6h-371q-49 0 -49 35q0 16 6 35q8 35 20.5 43t43.5 8h98l-31 321h-524l-190 -321h81q20 0 29.5 -1 t19 -11.5t9.5 -28.5q0 -20 -9.5 -44t-21.5 -30q-10 -6 -33 -6h-344q-53 0 -53 37zM715 563h440l-59 641z" />
<glyph unicode="&#xc4;" horiz-adv-x="1615" d="M926 1700q0 49 40 87t89 38q39 0 64.5 -24.5t25.5 -65.5q0 -51 -40 -88t-87 -37q-39 0 -65.5 25.5t-26.5 64.5zM1325 1700q0 47 39 86t88 39q39 0 65.5 -24.5t26.5 -65.5q0 -45 -39 -85t-90 -40q-37 0 -63.5 25.5t-26.5 64.5zM129 37q0 12 8 39.5t23 36.5q4 4 53 8h111 l741 1251q20 33 37.5 43t48.5 10h23q27 0 39 -10t14 -20.5t4 -32.5l84 -899q14 -125 33 -342h106q57 0 57 -37q0 -14 -8 -42t-22 -36q-10 -6 -33 -6h-371q-49 0 -49 35q0 16 6 35q8 35 20.5 43t43.5 8h98l-31 321h-524l-190 -321h81q20 0 29.5 -1t19 -11.5t9.5 -28.5 q0 -20 -9.5 -44t-21.5 -30q-10 -6 -33 -6h-344q-53 0 -53 37zM715 563h440l-59 641z" />
<glyph unicode="&#xc5;" horiz-adv-x="1615" d="M129 37q0 12 8 39.5t23 36.5q4 4 53 8h111l716 1206q-82 51 -82 156q0 129 85 244.5t225 115.5q78 0 125 -46t47 -132q0 -78 -45 -181.5t-160 -156.5l113 -1206h106q57 0 57 -37q0 -14 -8 -42t-22 -36q-10 -6 -33 -6h-371q-49 0 -49 35q0 16 6 35q8 35 20.5 43t43.5 8h98 l-31 321h-524l-190 -321h81q20 0 29.5 -1t19 -11.5t9.5 -28.5q0 -20 -9.5 -44t-21.5 -30q-10 -6 -33 -6h-344q-53 0 -53 37zM715 563h440l-59 641zM1073 1505q0 -80 90 -80q70 0 105 45.5t51 133.5q6 23 6 41q0 78 -90 77q-70 0 -102.5 -42t-51.5 -121q-8 -34 -8 -54z" />
<glyph unicode="&#xc6;" horiz-adv-x="1939" d="M129 37q0 12 8 39.5t23 36.5q4 4 53 8h113l696 1159h-49q-47 0 -47 35q0 18 6 37q6 31 19.5 39t39.5 8h1004q2 2 8 2q53 0 53 -43q0 -4 -12 -109l-25 -207l-14 -102q-4 -37 -15.5 -48t-43.5 -11h-11q-31 0 -42 10t-11 37q0 12 14.5 133t14.5 178v25q-78 16 -248 16h-305 l-137 -547h198h102q28 0 50 11.5t24 19.5t13 41q10 31 18 62.5t11 46t8.5 29.5t12.5 19.5t17.5 7.5t28.5 3q59 0 59 -37q0 -10 -27 -123l-62 -248q-34 -135 -38 -147q-10 -43 -55 -43h-12q-53 0 -53 35q0 16 15 79.5t23 116.5q-53 6 -159 6h-203l-123 -491h268 q156 0 225.5 7t86 17.5t32.5 38.5q27 51 158 355q12 33 24.5 40t45.5 7q55 0 55 -33q0 -10 -12 -47l-193 -465q-10 -27 -21.5 -34t-39.5 -7h-889q-45 0 -45 37q0 84 70 84h86l122 491h-294l-295 -491h82q18 0 28 -2t18.5 -11.5t8.5 -27.5q0 -23 -9.5 -46.5t-21.5 -27.5 q-10 -6 -33 -6h-344q-53 0 -53 37zM821 733h252l137 547h-61z" />
<glyph unicode="&#xc7;" horiz-adv-x="1581" d="M309 481q0 164 62.5 329t172 303t281.5 224t373 86q240 0 375 -190l110 149q27 39 52 39q27 0 26 -22q0 -6 -58 -241l-61 -243q-8 -25 -16 -30.5t-31 -5.5h-30q-25 0 -35 5t-10 25q0 2 1 22.5t1 43.5q0 53 -13.5 105.5t-43 104.5t-90 85t-142.5 33q-250 0 -457 -149.5 t-284 -463.5q-27 -106 -27 -192q0 -115 42 -197t112.5 -124t145.5 -60.5t159 -18.5q156 0 290 98.5t187 245.5q14 41 20 47.5t39 6.5h35q35 0 35 -23q0 -18 -12 -45q-20 -61 -64.5 -126.5t-115 -134.5t-179 -119t-237.5 -68q123 -43 122 -148q0 -63 -43 -119.5t-129 -83.5 q-92 -29 -301 -28q-47 0 -47 34q0 14 2 23q10 43 23.5 52t52.5 9q303 6 303 97q0 53 -92 59q-49 6 -49 37q0 18 14 68q-215 16 -342 148t-127 353z" />
<glyph unicode="&#xc8;" horiz-adv-x="1484" d="M954 1714q0 29 23.5 53.5t54.5 24.5q20 0 287 -147q41 -25 41 -46q0 -18 -23.5 -48.5t-42.5 -30.5q-12 0 -286 131q-54 24 -54 63zM162 37q0 12 9 40.5t22 37.5q16 6 28 6h144l286 1153h-127q-43 0 -43 37q0 55 27 75q14 8 35 9h1005q51 0 51 -43q0 -33 -51 -420 q-4 -39 -17 -47t-50 -8h-2q-51 0 -52 41l15 122q12 121 12 177q0 10 -1 16t-1 11t-4 8t-5 5.5t-8.5 4.5t-9.5 2t-12 1t-14 1q-78 8 -244 8h-352l-123 -490q23 0 67 -1t66 -1q172 0 208 5.5t46 29.5q12 27 25 73l21 80q9 34 20 42q10 10 45 10q59 0 59 -35q0 -6 -127 -518 q-4 -20 -14.5 -30.5t-17.5 -11.5t-23 -3h-13q-53 0 -53 37q0 14 15.5 76.5t21.5 117.5q-55 8 -168 9h-209l-135 -543h326q178 0 259 8t95 16.5t31 36.5q31 51 159 357q12 31 24.5 39t37.5 8h2q23 0 33 -1t19 -8.5t9 -23.5q0 -10 -12 -47l-192 -465q-10 -27 -21.5 -34 t-38.5 -7h-1038q-45 0 -45 37z" />
<glyph unicode="&#xc9;" horiz-adv-x="1484" d="M1024 1595q0 14 8 23.5t15.5 13.5t27.5 13q336 145 357 145q27 0 43 -17.5t16 -41.5q0 -49 -74 -80q-340 -131 -350 -131q-43 -1 -43 75zM162 37q0 12 9 40.5t22 37.5q16 6 28 6h144l286 1153h-127q-43 0 -43 37q0 55 27 75q14 8 35 9h1005q51 0 51 -43q0 -33 -51 -420 q-4 -39 -17 -47t-50 -8h-2q-51 0 -52 41l15 122q12 121 12 177q0 10 -1 16t-1 11t-4 8t-5 5.5t-8.5 4.5t-9.5 2t-12 1t-14 1q-78 8 -244 8h-352l-123 -490q23 0 67 -1t66 -1q172 0 208 5.5t46 29.5q12 27 25 73l21 80q9 34 20 42q10 10 45 10q59 0 59 -35q0 -6 -127 -518 q-4 -20 -14.5 -30.5t-17.5 -11.5t-23 -3h-13q-53 0 -53 37q0 14 15.5 76.5t21.5 117.5q-55 8 -168 9h-209l-135 -543h326q178 0 259 8t95 16.5t31 36.5q31 51 159 357q12 31 24.5 39t37.5 8h2q23 0 33 -1t19 -8.5t9 -23.5q0 -10 -12 -47l-192 -465q-10 -27 -21.5 -34 t-38.5 -7h-1038q-45 0 -45 37z" />
<glyph unicode="&#xca;" horiz-adv-x="1484" d="M838 1565q0 12 11 23t69 52q260 186 268 191q8 4 14 4q14 0 49 -35l137 -153q43 -49 50.5 -61.5t7.5 -20.5q0 -18 -29 -45t-47 -27t-80 72q-90 104 -108 129l-146 -109q-125 -92 -139 -92q-20 0 -38.5 28t-18.5 44zM162 37q0 12 9 40.5t22 37.5q16 6 28 6h144l286 1153 h-127q-43 0 -43 37q0 55 27 75q14 8 35 9h1005q51 0 51 -43q0 -33 -51 -420q-4 -39 -17 -47t-50 -8h-2q-51 0 -52 41l15 122q12 121 12 177q0 10 -1 16t-1 11t-4 8t-5 5.5t-8.5 4.5t-9.5 2t-12 1t-14 1q-78 8 -244 8h-352l-123 -490q23 0 67 -1t66 -1q172 0 208 5.5t46 29.5 q12 27 25 73l21 80q9 34 20 42q10 10 45 10q59 0 59 -35q0 -6 -127 -518q-4 -20 -14.5 -30.5t-17.5 -11.5t-23 -3h-13q-53 0 -53 37q0 14 15.5 76.5t21.5 117.5q-55 8 -168 9h-209l-135 -543h326q178 0 259 8t95 16.5t31 36.5q31 51 159 357q12 31 24.5 39t37.5 8h2 q23 0 33 -1t19 -8.5t9 -23.5q0 -10 -12 -47l-192 -465q-10 -27 -21.5 -34t-38.5 -7h-1038q-45 0 -45 37z" />
<glyph unicode="&#xcb;" horiz-adv-x="1484" d="M870 1700q0 47 39 86t90 39q37 0 64 -24.5t27 -63.5q0 -47 -39 -87t-90 -40q-39 0 -65 26.5t-26 63.5zM1268 1700q0 47 39 86t90 39q39 0 65.5 -24.5t26.5 -65.5q0 -47 -39 -86t-90 -39q-39 0 -65.5 25.5t-26.5 64.5zM162 37q0 12 9 40.5t22 37.5q16 6 28 6h144l286 1153 h-127q-43 0 -43 37q0 55 27 75q14 8 35 9h1005q51 0 51 -43q0 -33 -51 -420q-4 -39 -17 -47t-50 -8h-2q-51 0 -52 41l15 122q12 121 12 177q0 10 -1 16t-1 11t-4 8t-5 5.5t-8.5 4.5t-9.5 2t-12 1t-14 1q-78 8 -244 8h-352l-123 -490q23 0 67 -1t66 -1q172 0 208 5.5t46 29.5 q12 27 25 73l21 80q9 34 20 42q10 10 45 10q59 0 59 -35q0 -6 -127 -518q-4 -20 -14.5 -30.5t-17.5 -11.5t-23 -3h-13q-53 0 -53 37q0 14 15.5 76.5t21.5 117.5q-55 8 -168 9h-209l-135 -543h326q178 0 259 8t95 16.5t31 36.5q31 51 159 357q12 31 24.5 39t37.5 8h2 q23 0 33 -1t19 -8.5t9 -23.5q0 -10 -12 -47l-192 -465q-10 -27 -21.5 -34t-38.5 -7h-1038q-45 0 -45 37z" />
<glyph unicode="&#xcc;" horiz-adv-x="819" d="M584 1714q0 29 22.5 53.5t52.5 24.5q23 0 172 -82l117 -65q41 -25 41 -46q0 -18 -23.5 -48.5t-43.5 -30.5q-6 0 -14.5 3t-29 12t-44.5 21l-79 39l-116 56q-55 22 -55 63zM152 37q0 55 30 76q10 8 29 8h151l289 1159h-135q-43 0 -43 37q0 70 37 80q8 2 25 2h436 q41 0 41 -35q0 -59 -29 -78q-12 -6 -29 -6h-151l-291 -1159h137q43 0 43 -37q0 -70 -39 -82q-6 -2 -24 -2h-422q-55 0 -55 37z" />
<glyph unicode="&#xcd;" horiz-adv-x="819" d="M590 1595q0 20 28.5 37t174.5 78l145 62q29 18 59 18q27 0 43.5 -17.5t16.5 -41.5q0 -39 -36 -60.5t-167 -71.5l-115 -43q-94 -37 -106 -36q-18 0 -28.5 20.5t-12.5 33.5t-2 21zM152 37q0 55 30 76q10 8 29 8h151l289 1159h-135q-43 0 -43 37q0 70 37 80q8 2 25 2h436 q41 0 41 -35q0 -59 -29 -78q-12 -6 -29 -6h-151l-291 -1159h137q43 0 43 -37q0 -70 -39 -82q-6 -2 -24 -2h-422q-55 0 -55 37z" />
<glyph unicode="&#xce;" horiz-adv-x="819" d="M496 1565q0 16 28 39q270 197 301 217q25 14 33 14q14 0 49 -35l137 -153q43 -49 50.5 -61.5t7.5 -20.5q0 -18 -30 -45t-48 -27q-16 0 -78 72q-90 104 -108 129q-262 -195 -277 -199q-4 -2 -8 -2q-20 0 -38.5 27t-18.5 45zM152 37q0 55 30 76q10 8 29 8h151l289 1159 h-135q-43 0 -43 37q0 70 37 80q8 2 25 2h436q41 0 41 -35q0 -59 -29 -78q-12 -6 -29 -6h-151l-291 -1159h137q43 0 43 -37q0 -70 -39 -82q-6 -2 -24 -2h-422q-55 0 -55 37z" />
<glyph unicode="&#xcf;" horiz-adv-x="819" d="M926 1700q0 47 39 86t90 39q39 0 64.5 -24.5t25.5 -65.5q0 -51 -41 -88t-88 -37q-37 0 -63.5 25.5t-26.5 64.5zM528 1700q0 47 39 86t88 39q39 0 66 -24.5t27 -65.5q0 -45 -39 -85t-91 -40q-37 0 -63.5 25.5t-26.5 64.5zM152 37q0 55 30 76q10 8 29 8h151l289 1159h-135 q-43 0 -43 37q0 70 37 80q8 2 25 2h436q41 0 41 -35q0 -59 -29 -78q-12 -6 -29 -6h-151l-291 -1159h137q43 0 43 -37q0 -70 -39 -82q-6 -2 -24 -2h-422q-55 0 -55 37z" />
<glyph unicode="&#xd0;" horiz-adv-x="1654" d="M164 37q0 84 69 84h134l125 506h-113q-57 0 -57 41q0 27 13 52t46 28h141l133 532h-118q-51 0 -52 37q0 47 21 67q10 16 43 17q4 0 8 -1t6 -1h555q12 0 35 1t33 1q145 0 248.5 -42t157 -115t77 -151.5t23.5 -170.5q0 -104 -27 -220t-91.5 -243t-158.5 -227.5t-245.5 -166 t-333.5 -65.5h-611q-61 0 -61 37zM510 121h311q543 0 688 557q33 127 33 227q0 375 -420 375h-321l-133 -532h342q20 0 30.5 -1.5t19.5 -10.5t9 -25q0 -14 -2 -23q-10 -41 -22.5 -51t-43.5 -10h-364z" />
<glyph unicode="&#xd1;" horiz-adv-x="1615" d="M825 1646.5q0 16.5 35 51.5q131 127 236 127q61 0 153 -47t137 -47q57 0 119 46t72 46q16 0 39.5 -23.5t23.5 -40t-32 -49.5q-133 -129 -236 -129q-61 0 -155.5 47t-139.5 47q-55 0 -117.5 -46t-70.5 -46q-16 0 -40 23.5t-24 40zM166 37q0 55 29 76q6 4 57 8h117 l288 1159h-116q-53 0 -54 35q0 16 7 37q4 16 7 23t14 15.5t32 8.5h205q2 0 9 1t11 1q6 0 12.5 -1t11.5 -2t9 -4t6 -4t6 -6.5t5 -7.5t4 -9t4 -9t3.5 -11.5t4.5 -11.5l348 -962l37 -101l252 1008h-121q-49 0 -49 37q0 68 36 80q16 4 29 4q2 0 10.5 -1t10.5 -1h364q41 0 41 -35 q0 -57 -29 -78q-10 -6 -55 -6h-117l-30 -127l-277 -1106q-8 -29 -19.5 -38t-41.5 -9h-6q-18 0 -27.5 2t-19 11.5t-15.5 27.5l-366 1010q-29 78 -41 116l-263 -1046h119q51 0 51 -37q0 -23 -10 -49.5t-26 -30.5q-10 -4 -29 -4h-361q-67 0 -67 37z" />
<glyph unicode="&#xd2;" horiz-adv-x="1695" d="M1051 1714q0 29 22.5 53.5t52.5 24.5q18 0 48 -15l241 -132q41 -27 41 -45.5t-23.5 -49t-43.5 -30.5q-8 0 -16.5 3t-30.5 13l-46 23l-77 37l-113 55q-55 22 -55 63zM307 473q0 123 36 253t111.5 255t179 223.5t251 158.5t317.5 60q92 0 178 -23.5t168 -75.5t132.5 -155.5 t50.5 -246.5q0 -166 -70 -353.5t-203 -326.5q-252 -264 -620 -265q-94 0 -180.5 23t-168 75t-132 154.5t-50.5 243.5zM469 506q0 -115 37 -197t99.5 -124t128 -60.5t138.5 -18.5q141 0 261 55.5t201 143.5t138.5 197.5t83 215t25.5 200.5q0 109 -37 186.5t-100.5 117.5 t-131 57t-143.5 17q-106 0 -206.5 -32.5t-195.5 -100t-168 -187.5t-107 -280q-23 -104 -23 -190z" />
<glyph unicode="&#xd3;" horiz-adv-x="1695" d="M1034 1595q0 20 13.5 29.5t64.5 32.5q16 6 25 10q287 123 305 123q27 0 43 -17.5t16 -41.5q0 -39 -35.5 -59.5t-165.5 -69.5q-74 -27 -118 -46q-98 -37 -107 -36q-41 -1 -41 75zM307 473q0 123 36 253t111.5 255t179 223.5t251 158.5t317.5 60q92 0 178 -23.5t168 -75.5 t132.5 -155.5t50.5 -246.5q0 -166 -70 -353.5t-203 -326.5q-252 -264 -620 -265q-94 0 -180.5 23t-168 75t-132 154.5t-50.5 243.5zM469 506q0 -115 37 -197t99.5 -124t128 -60.5t138.5 -18.5q141 0 261 55.5t201 143.5t138.5 197.5t83 215t25.5 200.5q0 109 -37 186.5 t-100.5 117.5t-131 57t-143.5 17q-106 0 -206.5 -32.5t-195.5 -100t-168 -187.5t-107 -280q-23 -104 -23 -190z" />
<glyph unicode="&#xd4;" horiz-adv-x="1695" d="M934 1565q0 6 4 13t12 15.5t16 13.5l22 16l24 17l250 181q25 14 34 14q18 0 47 -35l139 -154q42 -48 50 -60.5t8 -20.5q0 -18 -29.5 -45t-48 -27t-78.5 72l-34 40l-41 47l-35 42q-268 -197 -285 -201q-18 0 -36.5 27t-18.5 45zM307 473q0 123 36 253t111.5 255t179 223.5 t251 158.5t317.5 60q92 0 178 -23.5t168 -75.5t132.5 -155.5t50.5 -246.5q0 -166 -70 -353.5t-203 -326.5q-252 -264 -620 -265q-94 0 -180.5 23t-168 75t-132 154.5t-50.5 243.5zM469 506q0 -115 37 -197t99.5 -124t128 -60.5t138.5 -18.5q141 0 261 55.5t201 143.5 t138.5 197.5t83 215t25.5 200.5q0 109 -37 186.5t-100.5 117.5t-131 57t-143.5 17q-106 0 -206.5 -32.5t-195.5 -100t-168 -187.5t-107 -280q-23 -104 -23 -190z" />
<glyph unicode="&#xd5;" horiz-adv-x="1695" d="M862 1647q0 16 35 51q133 129 236 129q61 0 154 -48t138 -48q55 0 118 46t71 46q18 0 41.5 -23.5t23.5 -40.5q0 -10 -4 -17t-15 -19l-13 -13q-133 -129 -238 -129q-61 0 -154.5 48t-138.5 48q-55 0 -117.5 -47t-72.5 -47q-14 0 -39 23t-25 41zM307 473q0 123 36 253 t111.5 255t179 223.5t251 158.5t317.5 60q92 0 178 -23.5t168 -75.5t132.5 -155.5t50.5 -246.5q0 -166 -70 -353.5t-203 -326.5q-252 -264 -620 -265q-94 0 -180.5 23t-168 75t-132 154.5t-50.5 243.5zM469 506q0 -115 37 -197t99.5 -124t128 -60.5t138.5 -18.5 q141 0 261 55.5t201 143.5t138.5 197.5t83 215t25.5 200.5q0 109 -37 186.5t-100.5 117.5t-131 57t-143.5 17q-106 0 -206.5 -32.5t-195.5 -100t-168 -187.5t-107 -280q-23 -104 -23 -190z" />
<glyph unicode="&#xd6;" horiz-adv-x="1695" d="M967 1700q0 47 38.5 86t88.5 39q39 0 65.5 -24.5t26.5 -65.5q0 -45 -39 -85t-90 -40q-37 0 -63.5 25.5t-26.5 64.5zM1364 1700q0 47 39 86t88 39q39 0 65.5 -24.5t26.5 -65.5q0 -45 -39 -85t-90 -40q-37 0 -63.5 25.5t-26.5 64.5zM307 473q0 123 36 253t111.5 255 t179 223.5t251 158.5t317.5 60q92 0 178 -23.5t168 -75.5t132.5 -155.5t50.5 -246.5q0 -166 -70 -353.5t-203 -326.5q-252 -264 -620 -265q-94 0 -180.5 23t-168 75t-132 154.5t-50.5 243.5zM469 506q0 -115 37 -197t99.5 -124t128 -60.5t138.5 -18.5q141 0 261 55.5 t201 143.5t138.5 197.5t83 215t25.5 200.5q0 109 -37 186.5t-100.5 117.5t-131 57t-143.5 17q-106 0 -206.5 -32.5t-195.5 -100t-168 -187.5t-107 -280q-23 -104 -23 -190z" />
<glyph unicode="&#xd7;" horiz-adv-x="1695" d="M369 57q0 8 2 14.5t10 14.5t11 12t15.5 13.5t14.5 11.5l496 395l-193 258q-96 129 -112.5 152.5t-16.5 38.5q0 16 12.5 26.5t26.5 10.5q8 0 14 -3.5t13.5 -9.5t10.5 -10l10 -13q7 -9 9 -12q262 -346 289 -385l492 392q47 41 69 41q14 0 25.5 -11.5t11.5 -27.5 q0 -20 -49 -62l-498 -397v-2l297 -398q23 -31 23 -49q0 -16 -11.5 -27.5t-25.5 -11.5q-10 0 -20.5 6.5t-14.5 11.5l-14 18q-10 13 -13 16l-286 383l-127 -103l-261 -209q-132 -106 -145 -114q-25 -8 -26 -9q-14 0 -26.5 11.5t-12.5 27.5z" />
<glyph unicode="&#xd8;" horiz-adv-x="1695" d="M281 -82q0 8 5 17.5t18 25.5l29 34l46 52l61 70v2q-131 129 -131 354q0 154 58.5 316.5t165 306t282.5 235.5t387 92q172 0 305 -71q154 180 166 186q6 4 17 4q16 0 44.5 -20.5t28.5 -44.5q0 -10 -69 -91l-92 -104v-2q131 -137 131 -358q0 -162 -60.5 -327t-170 -303 t-282.5 -226.5t-380 -88.5q-162 0 -305 70q-150 -174 -162 -184q-10 -6 -21 -6q-16 0 -43.5 21.5t-27.5 39.5zM451 481q0 -160 81 -256l885 1024q-113 53 -243 54q-154 0 -281 -58.5t-207 -147.5t-135 -203t-77.5 -217.5t-22.5 -195.5zM625 150q115 -53 243 -54 q164 0 296 63.5t209 157t129 210t70.5 212t18.5 174.5q0 147 -82 261z" />
<glyph unicode="&#xd9;" horiz-adv-x="1615" d="M1010 1714q0 29 23.5 53.5t53.5 24.5q20 0 164 -80l123 -67q41 -25 41 -46q0 -18 -23.5 -48.5t-41.5 -30.5q-8 0 -17.5 3t-29.5 13l-47 23l-78 37l-113 55q-55 22 -55 63zM432 328q0 74 31 196l188 756h-106q-25 0 -35 1t-19.5 10t-9.5 28q0 57 31 74q14 8 33 8q2 0 6 -1 t6 -1h397q49 0 50 -35q0 -4 -1.5 -10l-3.5 -13.5t-2 -11.5q-8 -33 -20 -41t-37 -8h-137l-182 -733q-41 -160 -41 -221q0 -125 72.5 -177.5t178.5 -52.5q127 0 244 73t180 243q10 29 29 100l193 768h-121q-51 0 -51 37q0 20 10 47t28 33q16 4 27 4q4 0 11.5 -1t9.5 -1h268 q10 0 29.5 1t29.5 1h8q37 0 54.5 -6t17.5 -31q0 -57 -29 -78q-10 -6 -55 -6h-117l-192 -770q-16 -78 -39 -135q-66 -172 -210 -285t-341 -113q-170 0 -276.5 91.5t-106.5 259.5z" />
<glyph unicode="&#xda;" horiz-adv-x="1615" d="M1079 1595.5q0 20.5 11.5 28.5t70.5 33l23 10q285 123 303 123q27 0 43 -17.5t16 -41.5q0 -39 -35.5 -59.5t-164.5 -69.5q-74 -27 -119 -46q-98 -37 -105 -36q-25 0 -34 27.5t-9 48zM432 328q0 74 31 196l188 756h-106q-25 0 -35 1t-19.5 10t-9.5 28q0 57 31 74 q14 8 33 8q2 0 6 -1t6 -1h397q49 0 50 -35q0 -4 -1.5 -10l-3.5 -13.5t-2 -11.5q-8 -33 -20 -41t-37 -8h-137l-182 -733q-41 -160 -41 -221q0 -125 72.5 -177.5t178.5 -52.5q127 0 244 73t180 243q10 29 29 100l193 768h-121q-51 0 -51 37q0 20 10 47t28 33q16 4 27 4 q4 0 11.5 -1t9.5 -1h268q10 0 29.5 1t29.5 1h8q37 0 54.5 -6t17.5 -31q0 -57 -29 -78q-10 -6 -55 -6h-117l-192 -770q-16 -78 -39 -135q-66 -172 -210 -285t-341 -113q-170 0 -276.5 91.5t-106.5 259.5z" />
<glyph unicode="&#xdb;" horiz-adv-x="1615" d="M901 1565q0 16 29 39l299 217q25 14 35 14q18 0 47 -35l139 -153q43 -49 50 -61.5t7 -20.5q0 -18 -29.5 -45t-48 -27t-77.5 72l-35 40l-41 47l-35 42l-106 -80q-115 -86 -140.5 -103.5t-38.5 -17.5q-18 0 -36.5 27t-18.5 45zM432 328q0 74 31 196l188 756h-106 q-25 0 -35 1t-19.5 10t-9.5 28q0 57 31 74q14 8 33 8q2 0 6 -1t6 -1h397q49 0 50 -35q0 -4 -1.5 -10l-3.5 -13.5t-2 -11.5q-8 -33 -20 -41t-37 -8h-137l-182 -733q-41 -160 -41 -221q0 -125 72.5 -177.5t178.5 -52.5q127 0 244 73t180 243q10 29 29 100l193 768h-121 q-51 0 -51 37q0 20 10 47t28 33q16 4 27 4q4 0 11.5 -1t9.5 -1h268q10 0 29.5 1t29.5 1h8q37 0 54.5 -6t17.5 -31q0 -57 -29 -78q-10 -6 -55 -6h-117l-192 -770q-16 -78 -39 -135q-66 -172 -210 -285t-341 -113q-170 0 -276.5 91.5t-106.5 259.5z" />
<glyph unicode="&#xdc;" horiz-adv-x="1615" d="M926 1700q0 49 40 87t89 38q39 0 64.5 -24.5t25.5 -65.5q0 -51 -41 -88t-88 -37q-37 0 -63.5 25.5t-26.5 64.5zM1323 1700q0 47 39 86t90 39q39 0 65.5 -24.5t26.5 -65.5q0 -47 -39 -86t-90 -39q-39 0 -65.5 25.5t-26.5 64.5zM432 328q0 74 31 196l188 756h-106 q-25 0 -35 1t-19.5 10t-9.5 28q0 57 31 74q14 8 33 8q2 0 6 -1t6 -1h397q49 0 50 -35q0 -4 -1.5 -10l-3.5 -13.5t-2 -11.5q-8 -33 -20 -41t-37 -8h-137l-182 -733q-41 -160 -41 -221q0 -125 72.5 -177.5t178.5 -52.5q127 0 244 73t180 243q10 29 29 100l193 768h-121 q-51 0 -51 37q0 20 10 47t28 33q16 4 27 4q4 0 11.5 -1t9.5 -1h268q10 0 29.5 1t29.5 1h8q37 0 54.5 -6t17.5 -31q0 -57 -29 -78q-10 -6 -55 -6h-117l-192 -770q-16 -78 -39 -135q-66 -172 -210 -285t-341 -113q-170 0 -276.5 91.5t-106.5 259.5z" />
<glyph unicode="&#xdd;" horiz-adv-x="1615" d="M1079 1595.5q0 20.5 11.5 28.5t70.5 33l23 10q285 123 305 123q25 0 41 -17.5t16 -41.5q0 -39 -36.5 -60.5t-168.5 -71.5l-114 -43q-94 -37 -105 -36q-25 0 -34 27.5t-9 48zM412 1317q0 31 16 63q14 18 47 19h373q49 0 49 -35q0 -18 -6 -37q-6 -33 -19.5 -40t-40.5 -7 h-71l231 -588l527 588h-54q-53 0 -53 33q0 16 6 35q8 33 19.5 42t40.5 9h346l2 2q45 0 45 -37q0 -45 -23 -72q-12 -12 -49 -12h-104q-29 0 -54 -25l-593 -663q-20 -23 -30.5 -47.5t-18 -56l-32.5 -137.5l-59 -230h117q18 0 28.5 -2t18.5 -10.5t8 -26.5q0 -23 -9 -46.5 t-21 -29.5q-10 -6 -33 -6h-404q-49 0 -49 35q0 18 6 37q10 49 58 49h137q106 399 106 434q0 14 -8 39l-272 686h-123q-55 0 -55 37z" />
<glyph unicode="&#xde;" horiz-adv-x="1370" d="M166 37q0 55 29 76q6 4 57 8h117l288 1159h-118q-51 0 -52 37q0 70 37 80q8 2 25 2h405q43 0 43 -35q0 -4 -6 -35q-8 -33 -20.5 -41t-36.5 -8h-137l-33 -127h293q47 0 93 -8t110.5 -34t105.5 -89.5t41 -157.5q0 -70 -28.5 -149.5t-88 -161.5t-175.5 -135t-267 -53h-281 l-61 -244h119q53 0 53 -37q0 -70 -39 -82q-8 -2 -25 -2h-376q-37 0 -54.5 6t-17.5 31zM598 485h180q6 0 22.5 -1t24.5 -1q121 0 211 38t134 96.5t63.5 111.5t19.5 100q0 203 -276 203h-242z" />
<glyph unicode="&#xdf;" horiz-adv-x="1183" d="M-43 -285q0 43 26.5 75t69.5 32q29 0 48.5 -18.5t19.5 -45.5q0 -16 -12 -45q4 -2 10 -2q92 0 139 150.5t139 652.5l56 305h-154q-47 0 -47 35q0 16 9 44t24 36q8 4 28 4h162v2q12 82 23.5 130t33 113.5t53 103.5t80 76t119 54.5t162.5 16.5q143 0 229.5 -56.5 t86.5 -148.5q0 -49 -38 -171t-102 -192q-18 -20 -62 -56t-68.5 -66.5t-24.5 -63.5q0 -37 28.5 -77t64.5 -71.5t64.5 -83t28.5 -110.5q0 -125 -113.5 -237.5t-263.5 -112.5q-86 0 -160.5 36.5t-74.5 114.5q0 53 30.5 79t59.5 26q23 0 41 -16.5t18 -41t-18 -53.5 q43 -25 114 -24q98 0 156.5 73.5t58.5 136.5q0 39 -26.5 78t-57 68t-57 79t-26.5 111.5t26.5 105.5t83.5 95t70 64q33 39 59.5 110.5t37.5 119.5t11 58q0 41 -47 73t-164 32q-143 0 -176 -17q-63 -37 -96 -219l-147 -786q-59 -319 -100.5 -433t-108.5 -184q-82 -84 -168 -84 q-66 0 -112 35t-46 90z" />
<glyph unicode="&#xe0;" d="M592 1319q0 29 23.5 53.5t54.5 24.5q25 0 71 -43q190 -186 201 -203q4 -8 4 -14q0 -18 -28.5 -46t-45 -28t-81.5 55q-174 150 -186.5 166.5t-12.5 34.5zM238 295q0 139 56 285.5t174 258t267 111.5q119 0 199 -92q25 59 78 60q25 0 41 -15.5t16 -40.5q0 -14 -14 -76 l-133 -526q-10 -37 -11 -67q0 -41 22.5 -61.5t43.5 -20.5q35 0 59.5 45t39 100t18.5 61q12 12 53 13q37 0 48 -5.5t11 -19.5q0 -35 -37 -123q-82 -193 -215 -192q-57 0 -104 31.5t-70 91.5q-131 -123 -276 -123q-104 0 -185 70.5t-81 234.5zM383 287q0 -98 44 -138t99 -40 q84 0 163 70.5t116 172.5q2 4 17.5 58.5t30.5 123t15 95.5q0 76 -34.5 138t-118.5 62q-88 0 -158 -67.5t-104.5 -163.5t-52 -178t-17.5 -133z" />
<glyph unicode="&#xe1;" d="M741 1135q0 14 14.5 26.5t86.5 59.5l131 86q102 68 122.5 79t37.5 11q27 0 43 -18.5t16 -43.5q0 -35 -44 -65.5t-312 -192.5q-33 -16 -41 -16q-20 0 -37 29t-17 45zM238 295q0 139 56 285.5t174 258t267 111.5q119 0 199 -92q25 59 78 60q25 0 41 -15.5t16 -40.5 q0 -14 -14 -76l-133 -526q-10 -37 -11 -67q0 -41 22.5 -61.5t43.5 -20.5q35 0 59.5 45t39 100t18.5 61q12 12 53 13q37 0 48 -5.5t11 -19.5q0 -35 -37 -123q-82 -193 -215 -192q-57 0 -104 31.5t-70 91.5q-131 -123 -276 -123q-104 0 -185 70.5t-81 234.5zM383 287 q0 -98 44 -138t99 -40q84 0 163 70.5t116 172.5q2 4 17.5 58.5t30.5 123t15 95.5q0 76 -34.5 138t-118.5 62q-88 0 -158 -67.5t-104.5 -163.5t-52 -178t-17.5 -133z" />
<glyph unicode="&#xe2;" d="M526 1077.5q0 16.5 52 55.5l32 26q262 203 285 203q18 0 66 -59q166 -203 169 -216q2 -2 3 -10q0 -18 -30 -43.5t-48 -25.5q-16 0 -47 36l-43 55l-60 77l-33 43q-266 -205 -280 -209q-4 -2 -8 -2q-18 0 -38 26.5t-20 43zM238 295q0 139 56 285.5t174 258t267 111.5 q119 0 199 -92q25 59 78 60q25 0 41 -15.5t16 -40.5q0 -14 -14 -76l-133 -526q-10 -37 -11 -67q0 -41 22.5 -61.5t43.5 -20.5q35 0 59.5 45t39 100t18.5 61q12 12 53 13q37 0 48 -5.5t11 -19.5q0 -35 -37 -123q-82 -193 -215 -192q-57 0 -104 31.5t-70 91.5 q-131 -123 -276 -123q-104 0 -185 70.5t-81 234.5zM383 287q0 -98 44 -138t99 -40q84 0 163 70.5t116 172.5q2 4 17.5 58.5t30.5 123t15 95.5q0 76 -34.5 138t-118.5 62q-88 0 -158 -67.5t-104.5 -163.5t-52 -178t-17.5 -133z" />
<glyph unicode="&#xe3;" d="M510 1200.5q0 16.5 29 44.5q147 147 233 148q53 0 110.5 -54.5t86.5 -54.5h2q41 2 104.5 54.5t75.5 52.5q14 0 38.5 -22.5t24.5 -41.5q0 -20 -28 -45l-66 -64q-20 -19 -72.5 -51t-93.5 -32q-55 0 -112.5 54t-85.5 54q-41 0 -105.5 -53t-77.5 -53q-16 0 -39.5 23.5 t-23.5 40zM238 295q0 139 56 285.5t174 258t267 111.5q119 0 199 -92q25 59 78 60q25 0 41 -15.5t16 -40.5q0 -14 -14 -76l-133 -526q-10 -37 -11 -67q0 -41 22.5 -61.5t43.5 -20.5q35 0 59.5 45t39 100t18.5 61q12 12 53 13q37 0 48 -5.5t11 -19.5q0 -35 -37 -123 q-82 -193 -215 -192q-57 0 -104 31.5t-70 91.5q-131 -123 -276 -123q-104 0 -185 70.5t-81 234.5zM383 287q0 -98 44 -138t99 -40q84 0 163 70.5t116 172.5q2 4 17.5 58.5t30.5 123t15 95.5q0 76 -34.5 138t-118.5 62q-88 0 -158 -67.5t-104.5 -163.5t-52 -178t-17.5 -133z " />
<glyph unicode="&#xe4;" d="M573 1274q0 47 39 86t90 39q39 0 66 -25.5t27 -64.5q0 -51 -41 -88t-88 -37q-39 0 -66 24.5t-27 65.5zM973 1274q0 51 41 88t86 37q39 0 65.5 -25.5t26.5 -64.5q0 -51 -41 -88t-88 -37q-39 0 -64.5 24.5t-25.5 65.5zM238 295q0 139 56 285.5t174 258t267 111.5 q119 0 199 -92q25 59 78 60q25 0 41 -15.5t16 -40.5q0 -14 -14 -76l-133 -526q-10 -37 -11 -67q0 -41 22.5 -61.5t43.5 -20.5q35 0 59.5 45t39 100t18.5 61q12 12 53 13q37 0 48 -5.5t11 -19.5q0 -35 -37 -123q-82 -193 -215 -192q-57 0 -104 31.5t-70 91.5 q-131 -123 -276 -123q-104 0 -185 70.5t-81 234.5zM383 287q0 -98 44 -138t99 -40q84 0 163 70.5t116 172.5q2 4 17.5 58.5t30.5 123t15 95.5q0 76 -34.5 138t-118.5 62q-88 0 -158 -67.5t-104.5 -163.5t-52 -178t-17.5 -133z" />
<glyph unicode="&#xe5;" d="M571 1163q0 76 71 147.5t208 71.5q102 0 144 -42t42 -95q0 -70 -66.5 -144.5t-211.5 -74.5q-100 0 -143.5 42t-43.5 95zM686 1165q0 -68 88 -67q86 0 118 47t32 98q0 68 -88 68q-61 0 -98.5 -31t-44.5 -58.5t-7 -56.5zM238 295q0 139 56 285.5t174 258t267 111.5 q119 0 199 -92q25 59 78 60q25 0 41 -15.5t16 -40.5q0 -14 -14 -76l-133 -526q-10 -37 -11 -67q0 -41 22.5 -61.5t43.5 -20.5q35 0 59.5 45t39 100t18.5 61q12 12 53 13q37 0 48 -5.5t11 -19.5q0 -35 -37 -123q-82 -193 -215 -192q-57 0 -104 31.5t-70 91.5 q-131 -123 -276 -123q-104 0 -185 70.5t-81 234.5zM383 287q0 -98 44 -138t99 -40q84 0 163 70.5t116 172.5q2 4 17.5 58.5t30.5 123t15 95.5q0 76 -34.5 138t-118.5 62q-88 0 -158 -67.5t-104.5 -163.5t-52 -178t-17.5 -133z" />
<glyph unicode="&#xe6;" horiz-adv-x="1581" d="M242 299q0 106 33.5 219t94 210t158 159.5t211.5 62.5q111 0 201 -84q16 82 82 82q53 0 53 -57q0 -12 -4 -33q141 92 289 92q106 0 174 -54t68 -142q0 -86 -60.5 -158t-187.5 -102q-125 -31 -381 -31q-14 -90 -15 -129q0 -121 57.5 -173t139.5 -52q84 0 154.5 36.5 t109.5 73.5t47 37q16 0 40 -26.5t24 -41t-32 -47t-82 -67.5t-127 -60.5t-152 -25.5q-98 0 -178 50t-115 163q-55 -84 -143.5 -147.5t-196.5 -63.5q-100 0 -181 71.5t-81 237.5zM387 293q0 -102 43 -143t98 -41q104 0 195.5 109.5t120.5 254.5q2 14 12 55t16.5 76t6.5 66 q0 78 -44 118.5t-116 40.5q-96 0 -167 -70.5t-103.5 -171t-47 -176t-14.5 -118.5zM1006 584h67q401 0 402 151q0 35 -33 64.5t-105 29.5q-235 1 -331 -245z" />
<glyph unicode="&#xe7;" horiz-adv-x="1011" d="M231 -365q0 61 33 80q16 8 47 4q59 2 92 4.5t91.5 10.5t88 29.5t29.5 54.5q0 23 -22.5 37t-50.5 18q-4 0 -14.5 1t-17.5 3t-16.5 6t-13.5 11.5t-4 19.5q0 20 16 80q-248 49 -247 319q0 147 64.5 291t193.5 245t291 101q106 0 173.5 -50t67.5 -130q0 -51 -27.5 -85 t-72.5 -34q-29 0 -47.5 17.5t-18.5 46.5q0 35 33 71v2q-53 41 -127 41q-106 0 -187 -62t-120 -153.5t-57.5 -169t-18.5 -133.5q0 -94 50 -148t151 -54q82 0 153.5 23.5t109.5 50t66.5 50t34.5 23.5q16 0 40 -27.5t24 -38.5q0 -23 -72 -81q-68 -51 -141.5 -77t-122.5 -34 t-57 -16q129 -45 129 -150q0 -66 -45 -122t-131 -81q-90 -29 -295 -28q-52 -1 -52 34z" />
<glyph unicode="&#xe8;" horiz-adv-x="1011" d="M537 1319q0 29 24.5 53.5t52.5 24.5q25 0 72 -43q190 -186 201 -203q4 -8 4 -14q0 -18 -28.5 -46t-45 -28t-82.5 55q-174 150 -186 166.5t-12 34.5zM252 334q0 256 150.5 436t388.5 180q106 0 174.5 -54t68.5 -142q0 -29 -8 -59.5t-34.5 -75t-91 -81t-159.5 -55.5 q-121 -20 -327 -20q-16 -72 -17 -135q0 -115 54.5 -167t138.5 -52q86 0 157.5 23.5t107.5 50t62.5 50t34.5 23.5q16 0 38 -22.5t26 -34.5q8 -18 -21 -47q-164 -164 -428 -164q-55 0 -106 16t-100.5 53t-79 108t-29.5 169zM444 584h68q395 0 395 151q0 35 -33.5 64.5 t-103.5 29.5q-232 1 -326 -245z" />
<glyph unicode="&#xe9;" horiz-adv-x="1011" d="M686 1135q0 14 14.5 26.5t85.5 59.5l132 86q102 68 122.5 79t36.5 11q27 0 43.5 -18.5t16.5 -43.5q0 -35 -44 -65.5t-313 -192.5q-33 -16 -41 -16q-20 0 -36.5 29t-16.5 45zM252 334q0 256 150.5 436t388.5 180q106 0 174.5 -54t68.5 -142q0 -29 -8 -59.5t-34.5 -75 t-91 -81t-159.5 -55.5q-121 -20 -327 -20q-16 -72 -17 -135q0 -115 54.5 -167t138.5 -52q86 0 157.5 23.5t107.5 50t62.5 50t34.5 23.5q16 0 38 -22.5t26 -34.5q8 -18 -21 -47q-164 -164 -428 -164q-55 0 -106 16t-100.5 53t-79 108t-29.5 169zM444 584h68q395 0 395 151 q0 35 -33.5 64.5t-103.5 29.5q-232 1 -326 -245z" />
<glyph unicode="&#xea;" horiz-adv-x="1011" d="M471 1077q0 18 33 41q313 244 336 244q8 0 18 -7t16 -15l18 -20q11 -13 15 -17l45 -56l37.5 -45l28.5 -34.5l22 -26.5l17 -21q8 -10 11 -15t6 -11.5t4 -9.5t1 -7q0 -18 -30.5 -43.5t-49.5 -25.5q-16 0 -47 36l-43 55l-59 77l-33 43l-143 -111q-129 -100 -144 -100 q-18 0 -38.5 26.5t-20.5 42.5zM252 334q0 256 150.5 436t388.5 180q106 0 174.5 -54t68.5 -142q0 -29 -8 -59.5t-34.5 -75t-91 -81t-159.5 -55.5q-121 -20 -327 -20q-16 -72 -17 -135q0 -115 54.5 -167t138.5 -52q86 0 157.5 23.5t107.5 50t62.5 50t34.5 23.5q16 0 38 -22.5 t26 -34.5q8 -18 -21 -47q-164 -164 -428 -164q-55 0 -106 16t-100.5 53t-79 108t-29.5 169zM444 584h68q395 0 395 151q0 35 -33.5 64.5t-103.5 29.5q-232 1 -326 -245z" />
<glyph unicode="&#xeb;" horiz-adv-x="1011" d="M518 1274q0 47 39 86t90 39q41 0 66.5 -26.5t25.5 -63.5q0 -51 -41 -88t-88 -37q-39 0 -65.5 24.5t-26.5 65.5zM918 1274q0 47 38.5 86t87.5 39q39 0 66 -25.5t27 -64.5q0 -51 -41 -88t-88 -37q-39 0 -64.5 24.5t-25.5 65.5zM252 334q0 256 150.5 436t388.5 180 q106 0 174.5 -54t68.5 -142q0 -29 -8 -59.5t-34.5 -75t-91 -81t-159.5 -55.5q-121 -20 -327 -20q-16 -72 -17 -135q0 -115 54.5 -167t138.5 -52q86 0 157.5 23.5t107.5 50t62.5 50t34.5 23.5q16 0 38 -22.5t26 -34.5q8 -18 -21 -47q-164 -164 -428 -164q-55 0 -106 16 t-100.5 53t-79 108t-29.5 169zM444 584h68q395 0 395 151q0 35 -33.5 64.5t-103.5 29.5q-232 1 -326 -245z" />
<glyph unicode="&#xec;" horiz-adv-x="671" d="M367 1319q0 29 23.5 53.5t52 24.5t71.5 -43q160 -156 183.5 -180.5t23.5 -36.5q0 -18 -28.5 -46t-45 -28t-82.5 55q-176 152 -184 162q-14 19 -14 39zM150 633q0 31 32.5 102.5t107.5 143t165 71.5q76 0 122 -49t46 -121v-14q0 -33 -100.5 -295t-100.5 -299q0 -61 53 -61 q20 0 42 10t55.5 54t56.5 118q6 18 11 24.5t19.5 9.5t45.5 3q49 0 49 -25q0 -66 -91.5 -190.5t-211.5 -124.5q-72 0 -120 46t-48 122q0 55 99 312t99 302q0 25 -14 41t-39 16q-20 0 -43 -10t-55.5 -54t-55.5 -118q-8 -25 -19 -32t-36 -7h-18q-51 0 -51 25z" />
<glyph unicode="&#xed;" horiz-adv-x="671" d="M516 1134.5q0 16.5 12.5 26.5t87.5 60q260 170 277 174q4 2 12 2q27 0 44.5 -18.5t17.5 -43.5q0 -8 -1 -15t-4.5 -13.5t-9.5 -13.5t-13 -13t-21 -15l-29 -19l-38 -23l-47 -28l-61 -36l-71 -43q-90 -55 -103 -55q-20 0 -36.5 28.5t-16.5 45zM150 633q0 31 32.5 102.5 t107.5 143t165 71.5q76 0 122 -49t46 -121v-14q0 -33 -100.5 -295t-100.5 -299q0 -61 53 -61q20 0 42 10t55.5 54t56.5 118q6 18 11 24.5t19.5 9.5t45.5 3q49 0 49 -25q0 -66 -91.5 -190.5t-211.5 -124.5q-72 0 -120 46t-48 122q0 55 99 312t99 302q0 25 -14 41t-39 16 q-20 0 -43 -10t-55.5 -54t-55.5 -118q-8 -25 -19 -32t-36 -7h-18q-51 0 -51 25z" />
<glyph unicode="&#xee;" horiz-adv-x="671" d="M231 1077q0 18 33 41q313 244 336 244q18 0 66 -59q166 -203 170 -216q2 -2 2 -10q0 -18 -30 -43.5t-48 -25.5q-16 0 -47 36q-80 92 -135 175l-136 -105q-137 -106 -153 -106q-18 0 -38 26.5t-20 42.5zM150 633q0 31 32.5 102.5t107.5 143t165 71.5q76 0 122 -49t46 -121 v-14q0 -33 -100.5 -295t-100.5 -299q0 -61 53 -61q20 0 42 10t55.5 54t56.5 118q6 18 11 24.5t19.5 9.5t45.5 3q49 0 49 -25q0 -66 -91.5 -190.5t-211.5 -124.5q-72 0 -120 46t-48 122q0 55 99 312t99 302q0 25 -14 41t-39 16q-20 0 -43 -10t-55.5 -54t-55.5 -118 q-8 -25 -19 -32t-36 -7h-18q-51 0 -51 25z" />
<glyph unicode="&#xef;" horiz-adv-x="671" d="M348 1272q0 53 41 90t88 37q37 0 64.5 -25.5t27.5 -64.5q0 -47 -38.5 -86t-90.5 -39q-39 0 -65.5 24.5t-26.5 63.5zM745 1274q0 49 40 87t89 38q39 0 66 -24.5t27 -65.5q0 -51 -41 -88t-88 -37q-39 0 -66 24.5t-27 65.5zM150 633q0 31 32.5 102.5t107.5 143t165 71.5 q76 0 122 -49t46 -121v-14q0 -33 -100.5 -295t-100.5 -299q0 -61 53 -61q20 0 42 10t55.5 54t56.5 118q6 18 11 24.5t19.5 9.5t45.5 3q49 0 49 -25q0 -66 -91.5 -190.5t-211.5 -124.5q-72 0 -120 46t-48 122q0 55 99 312t99 302q0 25 -14 41t-39 16q-20 0 -43 -10t-55.5 -54 t-55.5 -118q-8 -25 -19 -32t-36 -7h-18q-51 0 -51 25z" />
<glyph unicode="&#xf0;" d="M213 315q0 104 40 215t111.5 207.5t186.5 157.5t248 61q106 0 198 -57q-39 152 -157 283l-193 -97l-35 103l133 67q-100 61 -219 91l111 75q133 -29 240 -98l198 98l33 -104l-137 -68q104 -115 147 -223q49 -123 49 -266q0 -156 -63 -354q-63 -188 -208.5 -302 t-336.5 -116q-164 0 -255 86.5t-91 240.5zM365 332q0 -119 64.5 -168t160.5 -49q92 0 165.5 40t116.5 98t72 131t39 130t10 102q0 219 -227 220q-113 0 -197 -56.5t-126 -141.5t-60 -162.5t-18 -143.5z" />
<glyph unicode="&#xf1;" horiz-adv-x="1241" d="M582 1200.5q0 16.5 28 44.5q147 147 234 148q53 0 110.5 -54.5t85.5 -54.5h2q41 2 104.5 54.5t76.5 52.5q14 0 38.5 -22.5t24.5 -41.5q0 -20 -29 -45l-65 -64q-20 -19 -72.5 -51t-93.5 -32q-55 0 -112.5 54t-86.5 54q-41 0 -105.5 -53t-76.5 -53q-16 0 -39.5 23.5 t-23.5 40zM150 633q0 14 14 59t41.5 105.5t80 106.5t115.5 46q29 0 61 -8t71.5 -48t50.5 -108q150 164 325 164q98 0 166 -48t68 -165q0 -102 -76 -321t-76 -242q0 -63 53 -63q14 0 31 7t39.5 24.5t46 58.5t39.5 98q8 23 18.5 27t53.5 4q51 0 51 -25q0 -20 -20.5 -68.5 t-56.5 -104.5t-97.5 -99t-130.5 -43q-76 0 -121 48t-45 120q0 41 74.5 252t74.5 303q0 117 -116 116q-86 0 -158 -53t-117 -132t-81.5 -178t-56.5 -183l-37 -156q-17 -72 -25 -90q-25 -47 -72 -47q-53 0 -57 51q-2 10 8 53l147 590q10 51 10 64q0 39 -21.5 59t-45.5 20 q-35 0 -59.5 -46t-39 -100t-18.5 -60q-10 -12 -37 -13h-35q-40 0 -40 25z" />
<glyph unicode="&#xf2;" d="M592 1319q0 29 24.5 53.5t53.5 24.5q25 0 71 -43q190 -186 201 -203q4 -8 4 -14q0 -18 -27.5 -46t-46.5 -28q-16 0 -81 55q-174 150 -186.5 166.5t-12.5 34.5zM242 311q0 145 62.5 288.5t192.5 247t296 103.5q57 0 110 -16t102.5 -50t79 -100.5t29.5 -156.5 q0 -106 -38 -218t-105.5 -206t-175 -154.5t-232.5 -60.5q-55 0 -107.5 15t-102.5 49t-80.5 100.5t-30.5 158.5zM389 311q0 -111 56.5 -156.5t138.5 -45.5q106 0 188 62t121 153.5t57.5 169t18.5 133.5q0 111 -57.5 156.5t-139.5 45.5q-100 0 -179 -56t-121 -141t-62.5 -168 t-20.5 -153z" />
<glyph unicode="&#xf3;" d="M741 1135q0 14 14.5 26.5t86.5 59.5l131 86q102 68 122.5 79t37.5 11q27 0 43 -18.5t16 -43.5q0 -35 -44 -65.5t-312 -192.5q-33 -16 -41 -16q-20 0 -37 29t-17 45zM242 311q0 145 62.5 288.5t192.5 247t296 103.5q57 0 110 -16t102.5 -50t79 -100.5t29.5 -156.5 q0 -106 -38 -218t-105.5 -206t-175 -154.5t-232.5 -60.5q-55 0 -107.5 15t-102.5 49t-80.5 100.5t-30.5 158.5zM389 311q0 -111 56.5 -156.5t138.5 -45.5q106 0 188 62t121 153.5t57.5 169t18.5 133.5q0 111 -57.5 156.5t-139.5 45.5q-100 0 -179 -56t-121 -141t-62.5 -168 t-20.5 -153z" />
<glyph unicode="&#xf4;" d="M526 1077.5q0 16.5 52 55.5l32 26q262 203 285 203q8 0 18.5 -7t16.5 -15l17 -20q11 -13 16 -17q166 -205 170 -213q2 -4 2 -13q0 -18 -31 -43.5t-49 -25.5q-16 0 -47 36l-43 55l-60 77l-33 43l-143 -111q-129 -100 -143 -100q-18 0 -39 26.5t-21 43zM242 311 q0 145 62.5 288.5t192.5 247t296 103.5q57 0 110 -16t102.5 -50t79 -100.5t29.5 -156.5q0 -106 -38 -218t-105.5 -206t-175 -154.5t-232.5 -60.5q-55 0 -107.5 15t-102.5 49t-80.5 100.5t-30.5 158.5zM389 311q0 -111 56.5 -156.5t138.5 -45.5q106 0 188 62t121 153.5 t57.5 169t18.5 133.5q0 111 -57.5 156.5t-139.5 45.5q-100 0 -179 -56t-121 -141t-62.5 -168t-20.5 -153z" />
<glyph unicode="&#xf5;" d="M522 1200.5q0 16.5 29 44.5q147 147 233 148q53 0 110.5 -54.5t86.5 -54.5h2q41 2 104.5 54.5t75.5 52.5q14 0 39 -22.5t25 -41.5q0 -20 -29 -45l-65 -64q-20 -19 -72.5 -51t-93.5 -32q-55 0 -112.5 54t-86.5 54q-41 0 -105.5 -53t-76.5 -53q-16 0 -40 23.5t-24 40z M242 311q0 145 62.5 288.5t192.5 247t296 103.5q57 0 110 -16t102.5 -50t79 -100.5t29.5 -156.5q0 -106 -38 -218t-105.5 -206t-175 -154.5t-232.5 -60.5q-55 0 -107.5 15t-102.5 49t-80.5 100.5t-30.5 158.5zM389 311q0 -111 56.5 -156.5t138.5 -45.5q106 0 188 62 t121 153.5t57.5 169t18.5 133.5q0 111 -57.5 156.5t-139.5 45.5q-100 0 -179 -56t-121 -141t-62.5 -168t-20.5 -153z" />
<glyph unicode="&#xf6;" d="M575 1274q0 47 39 86t88 39q39 0 66 -25.5t27 -64.5q0 -51 -41 -88t-88 -37q-39 0 -65 24.5t-26 65.5zM973 1274q0 51 41 88t88 37q37 0 63.5 -25.5t26.5 -64.5q0 -51 -41 -88t-88 -37q-39 0 -64.5 24.5t-25.5 65.5zM242 311q0 145 62.5 288.5t192.5 247t296 103.5 q57 0 110 -16t102.5 -50t79 -100.5t29.5 -156.5q0 -106 -38 -218t-105.5 -206t-175 -154.5t-232.5 -60.5q-55 0 -107.5 15t-102.5 49t-80.5 100.5t-30.5 158.5zM389 311q0 -111 56.5 -156.5t138.5 -45.5q106 0 188 62t121 153.5t57.5 169t18.5 133.5q0 111 -57.5 156.5 t-139.5 45.5q-100 0 -179 -56t-121 -141t-62.5 -168t-20.5 -153z" />
<glyph unicode="&#xf7;" horiz-adv-x="1695" d="M295 512q0 41 65 41h1229q66 0 66 -41t-60 -41h-1241q-59 0 -59 41zM723 23q0 57 47 104t109 47q49 0 80.5 -30.5t31.5 -80.5q0 -59 -48 -106t-107 -47q-49 0 -81 32t-32 81zM956 961q0 55 47.5 104t110.5 49q47 0 80 -31.5t33 -81.5q0 -57 -48.5 -104t-109.5 -47 q-47 0 -80 31t-33 80z" />
<glyph unicode="&#xf8;" d="M121 -186q0 20 87 130.5t87 127.5l-25 61q-23 61 -22 150q0 160 65.5 320.5t196.5 275t295 114.5q98 0 168 -45q10 16 143 193q33 39 49.5 39t44 -18.5t27.5 -39.5q0 -6 -9 -20.5t-29 -40.5l-38 -51l-51 -67l-55 -73v-2q55 -86 55 -213q0 -117 -39 -239.5t-108.5 -229 t-177 -174t-232.5 -67.5q-90 0 -166 43h-2q-164 -217 -176 -226q-6 -4 -16 -4q-16 0 -44 19t-28 37zM377 281q0 -45 14 -95l502 660q-49 27 -107 26q-86 0 -157.5 -44t-116.5 -110.5t-77 -148.5t-45 -155.5t-13 -132.5zM465 92q57 -27 106 -26q92 0 168 49t119 120.5 t73 156.5t40 149.5t10 107.5q0 53 -14 103z" />
<glyph unicode="&#xf9;" horiz-adv-x="1183" d="M150 633q0 33 33.5 104.5t108.5 142t163 70.5q72 0 119 -47t47 -123q0 -41 -72 -239.5t-72 -292.5q0 -139 135 -139q84 0 158 80.5t113 234.5l104 414q23 100 88 100q53 0 58 -51q2 -14 -9 -53l-141 -566q-14 -57 -14 -75q0 -41 22.5 -61.5t44.5 -20.5q35 0 59.5 46 t39 100t18.5 60q10 12 41 13h29q43 0 43 -25q0 -37 -46 -141.5t-114 -149.5q-41 -25 -92 -24q-129 0 -174 121q-119 -123 -254 -123q-104 0 -176 52t-72 179q0 117 71.5 320.5t71.5 224.5q0 66 -53 65q-41 0 -80 -43t-63 -110q-4 -10 -9.5 -26.5t-7.5 -20.5l-6 -11.5 t-13 -7.5t-18.5 -1t-31.5 -1q-49 0 -49 25zM621 1319q0 29 24.5 53.5t53 24.5t71.5 -43q150 -143 177.5 -173t27.5 -44q0 -18 -27.5 -46t-44 -28t-82.5 55l-54 47q-28 25 -44 38l-34 29q-17 15 -26.5 22.5t-18.5 16.5t-12 14t-6 11.5t-4 11.5t-1 11z" />
<glyph unicode="&#xfa;" horiz-adv-x="1183" d="M150 633q0 33 33.5 104.5t108.5 142t163 70.5q72 0 119 -47t47 -123q0 -41 -72 -239.5t-72 -292.5q0 -139 135 -139q84 0 158 80.5t113 234.5l104 414q23 100 88 100q53 0 58 -51q2 -14 -9 -53l-141 -566q-14 -57 -14 -75q0 -41 22.5 -61.5t44.5 -20.5q35 0 59.5 46 t39 100t18.5 60q10 12 41 13h29q43 0 43 -25q0 -37 -46 -141.5t-114 -149.5q-41 -25 -92 -24q-129 0 -174 121q-119 -123 -254 -123q-104 0 -176 52t-72 179q0 117 71.5 320.5t71.5 224.5q0 66 -53 65q-41 0 -80 -43t-63 -110q-4 -10 -9.5 -26.5t-7.5 -20.5l-6 -11.5 t-13 -7.5t-18.5 -1t-31.5 -1q-49 0 -49 25zM772 1135q0 14 14.5 26.5t85.5 59.5l132 86q102 68 122.5 79t36.5 11q27 0 43.5 -18.5t16.5 -43.5q0 -35 -44 -65.5t-313 -192.5q-33 -16 -41 -16q-20 0 -36.5 29t-16.5 45z" />
<glyph unicode="&#xfb;" horiz-adv-x="1183" d="M150 633q0 33 33.5 104.5t108.5 142t163 70.5q72 0 119 -47t47 -123q0 -41 -72 -239.5t-72 -292.5q0 -139 135 -139q84 0 158 80.5t113 234.5l104 414q23 100 88 100q53 0 58 -51q2 -14 -9 -53l-141 -566q-14 -57 -14 -75q0 -41 22.5 -61.5t44.5 -20.5q35 0 59.5 46 t39 100t18.5 60q10 12 41 13h29q43 0 43 -25q0 -37 -46 -141.5t-114 -149.5q-41 -25 -92 -24q-129 0 -174 121q-119 -123 -254 -123q-104 0 -176 52t-72 179q0 117 71.5 320.5t71.5 224.5q0 66 -53 65q-41 0 -80 -43t-63 -110q-4 -10 -9.5 -26.5t-7.5 -20.5l-6 -11.5 t-13 -7.5t-18.5 -1t-31.5 -1q-49 0 -49 25zM557 1077q0 14 10.5 23.5t71.5 58.5q264 203 284.5 203t67.5 -59q166 -203 170 -216q2 -2 2 -10q0 -18 -30.5 -43.5t-47.5 -25.5q-20 0 -47 36q-66 76 -137 175q-262 -205 -278 -209q-4 -2 -9 -2q-18 0 -37.5 26.5t-19.5 42.5z " />
<glyph unicode="&#xfc;" horiz-adv-x="1183" d="M150 633q0 33 33.5 104.5t108.5 142t163 70.5q72 0 119 -47t47 -123q0 -41 -72 -239.5t-72 -292.5q0 -139 135 -139q84 0 158 80.5t113 234.5l104 414q23 100 88 100q53 0 58 -51q2 -14 -9 -53l-141 -566q-14 -57 -14 -75q0 -41 22.5 -61.5t44.5 -20.5q35 0 59.5 46 t39 100t18.5 60q10 12 41 13h29q43 0 43 -25q0 -37 -46 -141.5t-114 -149.5q-41 -25 -92 -24q-129 0 -174 121q-119 -123 -254 -123q-104 0 -176 52t-72 179q0 117 71.5 320.5t71.5 224.5q0 66 -53 65q-41 0 -80 -43t-63 -110q-4 -10 -9.5 -26.5t-7.5 -20.5l-6 -11.5 t-13 -7.5t-18.5 -1t-31.5 -1q-49 0 -49 25zM604 1274q0 47 39 86t90 39q37 0 63.5 -25.5t26.5 -64.5q0 -51 -41 -88t-86 -37q-39 0 -65.5 24.5t-26.5 65.5zM1001 1274q0 51 42 88t87 37q39 0 66 -25.5t27 -64.5q0 -47 -39 -86t-90 -39q-39 0 -66 24.5t-27 65.5z" />
<glyph unicode="&#xfd;" horiz-adv-x="1069" d="M152 633q0 23 20.5 72t56 105t97 98t129.5 42q76 0 122 -49t46 -121q0 -43 -73 -238.5t-73 -295.5q0 -137 135 -137q84 0 159 81.5t112 231.5q115 457 121 471q27 45 71 45q57 0 58 -57q0 -16 -11 -52l-196 -788q-27 -98 -33 -113q-59 -145 -189.5 -241.5t-265.5 -96.5 q-92 0 -151.5 47.5t-59.5 122.5q0 59 32 89t69 30q31 0 48 -18.5t17 -44.5q0 -33 -31 -70q39 -35 97 -35q90 0 174 66.5t127 171.5q12 31 35 119q-104 -80 -207 -80q-106 0 -178 52t-72 179q0 119 71.5 320.5t71.5 226.5q0 29 -14 46t-39 17q-20 0 -43 -11t-56.5 -56 t-56.5 -121q-8 -23 -20 -28t-53 -5q-47 0 -47 25zM715 1135q0 14 14 25t88 61l139 92q94 61 114 72.5t36 11.5q27 0 43 -18.5t16 -43.5q0 -35 -44 -65.5t-312 -192.5q-33 -16 -41 -16q-20 0 -36.5 29t-16.5 45z" />
<glyph unicode="&#xfe;" horiz-adv-x="1132" d="M8 -362q0 84 70 83h119l387 1549q-27 2 -57.5 2t-45 1t-30 3t-20.5 10t-5 23q0 10 6 32q8 31 17.5 41.5t33.5 12.5q20 4 117.5 15t106.5 11q37 0 36 -39q0 -10 -129 -532q154 100 318 100q109 0 161 -77.5t52 -198.5q0 -131 -60.5 -309.5t-185.5 -282.5 q-113 -92 -240 -92q-147 0 -229 106l-94 -375h106q53 0 54 -38q0 -20 -9.5 -44t-21.5 -30q-10 -6 -33 -6h-373q-51 0 -51 35zM481 281q0 -63 36 -117.5t110 -54.5q86 0 153.5 47t106.5 113.5t64.5 145.5t34.5 137t9 95q0 98 -47 140t-114 42q-86 0 -159 -54t-97 -103 q-6 -10 -51.5 -187t-45.5 -204z" />
<glyph unicode="&#xff;" horiz-adv-x="1069" d="M152 633q0 23 20.5 72t56 105t97 98t129.5 42q76 0 122 -49t46 -121q0 -43 -73 -238.5t-73 -295.5q0 -137 135 -137q84 0 159 81.5t112 231.5q115 457 121 471q27 45 71 45q57 0 58 -57q0 -16 -11 -52l-196 -788q-27 -98 -33 -113q-59 -145 -189.5 -241.5t-265.5 -96.5 q-92 0 -151.5 47.5t-59.5 122.5q0 59 32 89t69 30q31 0 48 -18.5t17 -44.5q0 -33 -31 -70q39 -35 97 -35q90 0 174 66.5t127 171.5q12 31 35 119q-104 -80 -207 -80q-106 0 -178 52t-72 179q0 119 71.5 320.5t71.5 226.5q0 29 -14 46t-39 17q-20 0 -43 -11t-56.5 -56 t-56.5 -121q-8 -23 -20 -28t-53 -5q-47 0 -47 25zM547 1274q0 49 40 87t89 38q39 0 65.5 -25.5t26.5 -64.5q0 -51 -41 -88t-88 -37q-39 0 -65.5 24.5t-26.5 65.5zM946 1274q0 47 39 86t88 39q39 0 65.5 -24.5t26.5 -65.5q0 -45 -39 -85t-90 -40q-37 0 -63.5 25.5t-26.5 64.5 z" />
<glyph unicode="&#x152;" horiz-adv-x="2166" d="M326 475q0 156 60 319.5t169 306t283 232.5t379 90q51 0 147 -12t188 -12h678q53 0 53.5 -41t-51.5 -416q-4 -41 -15 -51t-54 -10q-29 0 -40.5 9t-11.5 36q0 20 13.5 129.5t13.5 175.5v33q-82 16 -262 16h-322l-122 -494h153q238 0 262 13q20 12 45 108.5t35 106.5 q12 12 47 12q59 0 60 -37q0 -4 -127 -518q-10 -43 -54 -43h-12q-57 0 -57 35q0 16 16.5 79.5t22.5 116.5q-70 8 -211 9h-209l-137 -547h286q166 0 237 7t88 17.5t36 44.5q41 82 81 177l61 145q22 51 32 61q8 8 39 13h22q45 -2 45 -33q0 -16 -10 -37l-129 -313 q-61 -152 -77.5 -177.5t-49.5 -25.5h-731q-82 0 -185.5 -11.5t-156.5 -11.5q-92 0 -177 23t-168 75t-133 155.5t-50 244.5zM483 512q0 -199 109.5 -307.5t298.5 -108.5q141 0 198.5 66.5t110.5 279.5l53 213q84 334 99.5 403.5t15.5 117.5q0 74 -41 100.5t-137 26.5 q-207 0 -372 -116t-250 -295t-85 -380z" />
<glyph unicode="&#x153;" horiz-adv-x="1581" d="M233 266q0 147 57.5 310t180.5 290t277 127q84 0 150.5 -49t92.5 -153q164 160 367 159q106 0 175 -54t69 -142q0 -82 -57.5 -153t-174.5 -103q-125 -35 -395 -35q-16 -78 -17 -131q0 -121 57.5 -172t139.5 -51q152 0 277 122q29 35 53 17q45 -33 45 -58q0 -23 -50 -68.5 t-146.5 -89.5t-198.5 -44q-213 0 -283 182q-59 -78 -96 -113q-127 -113 -262 -112q-61 0 -115.5 24.5t-100 100t-45.5 196.5zM377 254q0 -104 42 -146t97 -42q88 0 161 74.5t111.5 180t59 200.5t20.5 157q0 111 -43 152.5t-100 41.5q-86 0 -157.5 -75.5t-110.5 -182 t-59.5 -203t-20.5 -157.5zM1006 584h67q401 0 402 151q0 35 -34 64.5t-104 29.5q-235 1 -331 -245z" />
<glyph unicode="&#x178;" horiz-adv-x="1615" d="M926 1700q0 49 40 87t89 38q39 0 65.5 -24.5t26.5 -65.5q0 -51 -41 -88t-88 -37q-39 0 -65.5 25.5t-26.5 64.5zM1325 1700q0 47 39 86t88 39q39 0 65.5 -24.5t26.5 -65.5q0 -45 -39 -85t-90 -40q-37 0 -63.5 25.5t-26.5 64.5zM412 1317q0 31 16 63q14 18 47 19h373 q49 0 49 -35q0 -18 -6 -37q-6 -33 -19.5 -40t-40.5 -7h-71l231 -588l527 588h-54q-53 0 -53 33q0 16 6 35q8 33 19.5 42t40.5 9h346l2 2q45 0 45 -37q0 -45 -23 -72q-12 -12 -49 -12h-104q-29 0 -54 -25l-593 -663q-20 -23 -30.5 -47.5t-18 -56l-32.5 -137.5l-59 -230h117 q18 0 28.5 -2t18.5 -10.5t8 -26.5q0 -23 -9 -46.5t-21 -29.5q-10 -6 -33 -6h-404q-49 0 -49 35q0 18 6 37q10 49 58 49h137q106 399 106 434q0 14 -8 39l-272 686h-123q-55 0 -55 37z" />
<glyph unicode="&#x2c6;" horiz-adv-x="1024" d="M481 1087v7q0 2 1 5t3 5t3 5t6 6l8 6l11 8q7 5 13 10.5t18 13.5l21 16q262 205 283 205q6 0 13 -4t16 -12l13 -13q5 -5 14 -17.5t11 -14.5q164 -197 170 -211q2 -6 2 -12q0 -18 -30.5 -45t-48.5 -27q-16 0 -95 100l-88 111l-143 -111q-129 -100 -143 -100q-18 0 -38 26.5 t-20 42.5z" />
<glyph unicode="&#x2dc;" d="M532 1228.5q0 16.5 29 45.5q147 147 234 147q53 0 110.5 -54t85.5 -54h2q41 2 104.5 54t76.5 52q14 0 38.5 -22.5t24.5 -40.5q0 -20 -29 -45l-65 -65q-20 -19 -72.5 -51t-93.5 -32q-55 0 -112.5 54.5t-86.5 54.5q-41 0 -105.5 -53.5t-76.5 -53.5q-16 0 -40 23.5t-24 40z " />
<glyph unicode="&#x2000;" horiz-adv-x="921" />
<glyph unicode="&#x2001;" horiz-adv-x="1843" />
<glyph unicode="&#x2002;" horiz-adv-x="921" />
<glyph unicode="&#x2003;" horiz-adv-x="1843" />
<glyph unicode="&#x2004;" horiz-adv-x="614" />
<glyph unicode="&#x2005;" horiz-adv-x="460" />
<glyph unicode="&#x2006;" horiz-adv-x="307" />
<glyph unicode="&#x2007;" horiz-adv-x="307" />
<glyph unicode="&#x2008;" horiz-adv-x="229" />
<glyph unicode="&#x2009;" horiz-adv-x="368" />
<glyph unicode="&#x200a;" horiz-adv-x="102" />
<glyph unicode="&#x2010;" horiz-adv-x="784" d="M184 440q0 39 21 76q12 20 45 21h440q53 0 53 -37q0 -14 -8 -35q-8 -27 -10 -35t-14.5 -17.5t-34.5 -9.5h-440q-52 0 -52 37z" />
<glyph unicode="&#x2011;" horiz-adv-x="784" d="M184 440q0 39 21 76q12 20 45 21h440q53 0 53 -37q0 -14 -8 -35q-8 -27 -10 -35t-14.5 -17.5t-34.5 -9.5h-440q-52 0 -52 37z" />
<glyph unicode="&#x2012;" horiz-adv-x="784" d="M184 440q0 39 21 76q12 20 45 21h440q53 0 53 -37q0 -14 -8 -35q-8 -27 -10 -35t-14.5 -17.5t-34.5 -9.5h-440q-52 0 -52 37z" />
<glyph unicode="&#x2013;" d="M190 557q0 68 39 80q16 4 27 4h915q51 0 52 -37q0 -55 -27 -76q-10 -8 -33 -8h-923q-50 0 -50 37z" />
<glyph unicode="&#x2014;" horiz-adv-x="2252" d="M240 557q0 2 6 33q6 29 17 40t40 11h1940q55 0 55 -37q0 -49 -25 -74q-12 -10 -43 -10h-1941q-49 0 -49 37z" />
<glyph unicode="&#x2018;" horiz-adv-x="671" d="M442 936q0 37 10.5 90t61.5 157.5t139 192.5q43 41 57.5 41t37 -28.5t22.5 -42.5q0 -10 -37 -46t-87 -110t-73 -166h7q94 0 94 -86q0 -49 -39 -90t-94 -41q-99 0 -99 129z" />
<glyph unicode="&#x2019;" horiz-adv-x="671" d="M457 883q0 10 37.5 47t86 109.5t70.5 164.5q-100 2 -100 86q0 49 39 90t96 41q37 0 66.5 -28.5t29.5 -98.5q0 -106 -59 -225t-121.5 -187.5t-87.5 -68.5q-14 0 -35.5 28t-21.5 42z" />
<glyph unicode="&#x201a;" horiz-adv-x="671" d="M156 -322q0 10 34.5 46t83 110t70.5 166q-94 4 -94 84q0 51 40 92t93 41q37 0 65.5 -27.5t28.5 -95.5q0 -106 -57.5 -226t-119.5 -190.5t-87 -70.5q-14 0 -35.5 28.5t-21.5 42.5z" />
<glyph unicode="&#x201c;" horiz-adv-x="784" d="M713 936q0 37 10 90t61.5 157.5t139.5 192.5q43 41 57 41t36.5 -28.5t22.5 -42.5q0 -10 -36.5 -46t-87 -110t-72.5 -166h6q94 0 94 -86q0 -49 -39 -90t-94 -41q-98 0 -98 129zM283 936q0 37 10 90t61.5 157.5t139.5 192.5q43 41 57 41t36.5 -28.5t22.5 -42.5 q0 -10 -36.5 -46t-87 -110t-72.5 -166h6q94 0 94 -86q0 -49 -39 -90t-94 -41q-98 0 -98 129z" />
<glyph unicode="&#x201d;" horiz-adv-x="784" d="M729 883q0 10 38 47t86 109.5t71 164.5q-100 2 -101 86q0 49 39 90t96 41q37 0 67 -28.5t30 -98.5q0 -106 -59.5 -225t-122 -187.5t-87.5 -68.5q-14 0 -35.5 28t-21.5 42zM299 883q0 10 38 47t86 109.5t71 164.5q-100 2 -101 86q0 49 39 90t96 41q37 0 67 -28.5t30 -98.5 q0 -106 -59.5 -225t-122 -187.5t-87.5 -68.5q-14 0 -35.5 28t-21.5 42z" />
<glyph unicode="&#x201e;" horiz-adv-x="784" d="M0 -322q0 10 37 46t86 109t72 167q-100 2 -101 84q0 51 40 92t93 41q98 0 99 -129q0 -109 -59.5 -226.5t-122 -186t-87.5 -68.5q-14 0 -35.5 28.5t-21.5 42.5zM430 -321.5q0 12.5 37 47t86 107.5t72 167q-98 2 -99 84q0 51 40 92t93 41q98 0 99 -129q0 -82 -36 -174 t-84 -156.5t-90 -107.5t-58.5 -43t-38 29.5t-21.5 42z" />
<glyph unicode="&#x2022;" d="M279 406q0 190 138 346.5t363 156.5q145 0 233.5 -77.5t88.5 -213.5q0 -190 -138.5 -346.5t-363.5 -156.5q-145 0 -233 78t-88 213z" />
<glyph unicode="&#x2026;" horiz-adv-x="2015" d="M252 88q0 47 40 88t91 41q39 0 64.5 -25.5t25.5 -62.5q0 -47 -41 -88t-92 -41q-37 0 -62.5 24.5t-25.5 63.5zM924 88q0 47 40 88t91 41q39 0 64.5 -25.5t25.5 -62.5q0 -47 -41 -88t-92 -41q-37 0 -62.5 24.5t-25.5 63.5zM1595 88q0 47 40 88t91 41q39 0 65 -25.5 t26 -62.5q0 -47 -41 -88t-93 -41q-37 0 -62.5 24.5t-25.5 63.5z" />
<glyph unicode="&#x202f;" horiz-adv-x="368" />
<glyph unicode="&#x2039;" horiz-adv-x="1011" d="M414 522q0 6 3 11.5t12 14.5t22.5 19.5l41.5 33.5l58 52q158 145 309 367q12 18 23.5 22.5t58.5 4.5q43 0 43 -19q0 -20 -73.5 -123.5t-153.5 -189.5q-84 -92 -207 -195q90 -121 136 -270.5t46 -220.5q0 -16 -9 -22.5t-38 -6.5h-29q-20 0 -29.5 6t-13.5 24.5t-7 43 t-15 75t-33 105.5q-29 78 -65.5 140.5t-58 90t-21.5 37.5z" />
<glyph unicode="&#x203a;" horiz-adv-x="1011" d="M285 20.5q0 20.5 53 97.5t158.5 194.5t222.5 213.5q-90 121 -136 270.5t-46 221.5q0 16 9 22.5t38 6.5h24q25 0 34 -4.5t13 -23t6.5 -42t14.5 -74.5t35 -110q33 -84 69.5 -144.5t56 -86t19.5 -38.5q0 -6 -2 -10t-12.5 -13l-23.5 -19.5t-41 -35.5l-60 -53 q-104 -96 -178 -188t-106 -142.5t-42 -56.5t-35 -6h-28q-43 0 -43 20.5z" />
<glyph unicode="&#x205f;" horiz-adv-x="460" />
<glyph unicode="&#x20ac;" horiz-adv-x="1581" d="M193 551q0 12 30 57q2 4 7.5 10.5t6.5 8.5t5 7t6 6t5 4t6 4t8 3t9 2h11h155l23 95h-174q-45 0 -45 18q0 12 16 35q4 8 13.5 21.5l12.5 17.5t10 12t12 10t13.5 4t18.5 2h172q115 231 341 381t468 150q125 0 230.5 -45t153.5 -92.5t48 -69.5q0 -14 -31.5 -59.5t-46.5 -45.5 q-10 0 -37 33q-129 141 -342 142q-188 0 -364 -111t-275 -283h826q33 0 33 -18q0 -16 -45 -76q-18 -27 -60 -26h-809q-20 -76 -22 -95h749q37 0 37 -18q0 -14 -22 -45q-35 -49 -48 -53q-10 -4 -32 -5h-693q12 -182 133 -288.5t306 -106.5q94 0 189 26.5t151.5 57.5 t105.5 62.5t51 31.5q33 10 25 -32q-14 -66 -21.5 -80.5t-29.5 -30.5q-236 -172 -500 -172q-242 0 -395.5 147.5t-155.5 384.5h-174q-2 0 -11 -1t-16 -1q-38 1 -38 21z" />
<glyph unicode="&#x2122;" horiz-adv-x="1468" d="M229 1477q0 61 76 61q4 0 12.5 -1t12.5 -1h465q2 0 12 1t16 1q84 0 84 -61q0 -59 -78 -60h-213l-2 -2l-147 -594q-18 -74 -68 -73q-23 0 -40 17t-17 42q0 12 28 126l67 268l55 216h-187q-76 1 -76 60zM797 807l6 37l135 538q4 16 9 39t8 34l8 28q4 16 7 24.5t8 18.5t9 14 t10.5 9t14.5 7.5t16 2.5q14 0 24.5 -4.5t19.5 -16.5t14.5 -27.5t14.5 -47t17 -63.5l24 -88l32 -112l120 156q117 152 140.5 177.5t48 25.5t42 -17.5t17.5 -44.5q0 -8 -6 -33l-162 -651l-2 -8q-2 -8 -5 -14.5t-8 -14.5t-11.5 -14t-15.5 -10t-21 -4q-25 0 -42.5 15t-17.5 46 q0 14 103 426l-68 -88q-78 -102 -96.5 -120.5t-40.5 -18.5q-37 0 -56.5 43t-60.5 213q-4 -20 -11 -50l-36 -140l-63 -255q-18 -72 -66 -71q-25 0 -42 17t-17 42z" />
<glyph unicode="&#xe000;" horiz-adv-x="950" d="M0 950h950v-950h-950v950z" />
<glyph unicode="&#xfb01;" horiz-adv-x="1228" d="M-55 -285q0 43 28.5 75t69.5 32q29 0 47.5 -18.5t18.5 -45.5q0 -20 -11 -45q20 -2 45 -2q53 0 80 53.5t62 194.5q23 86 64.5 301l72.5 387l31 172h-154q-47 0 -47 35q0 16 9 44t24 36q8 4 28 4h164q12 74 21.5 117t27 103.5t39 94t57 73.5t82 60.5t112 34t149.5 13.5 q154 0 236.5 -28t82.5 -106q0 -47 -28.5 -78.5t-69.5 -31.5q-25 0 -46.5 15.5t-21.5 47.5q0 14 12 47q-57 12 -169 13h-27q-119 0 -158 -6.5t-57 -24.5q-33 -31 -53.5 -101.5t-51.5 -242.5h533q43 0 43 -23q0 -6 -8 -38l-154 -621q-12 -41 -12 -63q0 -41 22.5 -61.5 t44.5 -20.5q35 0 59.5 46t39 100t18.5 60q10 12 41 13h29q43 0 43 -25q0 -16 -20.5 -75.5t-45.5 -104.5q-70 -135 -184 -135q-80 0 -133 51t-53 137q0 23 4 47.5t11 50t9 33.5l129 510h-438l-80 -420q-70 -371 -105.5 -499.5t-95.5 -206.5q-82 -102 -178 -103 q-66 0 -127 29.5t-61 95.5z" />
<glyph unicode="&#xfb02;" horiz-adv-x="1286" d="M-55 -285q0 43 28.5 75t69.5 32q29 0 47.5 -18.5t18.5 -45.5q0 -20 -11 -45q20 -2 45 -2q47 0 76 46t66 202q31 129 94 461t74 399h-154q-47 0 -47 35q0 16 9 44t24 36q8 4 28 4h164q39 225 80 307q88 178 344 189h31q168 0 219 -34t57 -100q18 88 27.5 104.5t40.5 16.5 h41q51 0 51 -20q0 -12 -6 -35l-270 -1083q-18 -66 -19 -88q0 -43 22.5 -63.5t45.5 -20.5q35 0 59.5 46t38.5 101t18 61q10 10 41 11h23q49 2 49 -25q0 -20 -26.5 -94t-61.5 -125q-70 -98 -162 -98q-78 0 -132 53t-54 137q0 39 14 86l137 555h-493q0 -4 -32 -176l-76 -393 q-44 -221 -68 -313q-92 -346 -283 -347q-66 0 -127 29.5t-61 95.5zM614 938h502l80 322q-37 -55 -88 -56q-66 0 -66 62q0 23 9 39q-49 8 -144 8q-156 0 -188 -23q-33 -29 -54.5 -103.5t-50.5 -248.5z" />
<glyph unicode="&#xfb03;" horiz-adv-x="1929" d="M-55 -285q0 41 28.5 74t69.5 33q29 0 47.5 -18.5t18.5 -45.5q0 -20 -11 -45q18 -2 43 -2q39 0 64.5 28t54.5 120q16 55 29.5 111.5t31.5 146.5l31 165l45 239l58 298h-156q-45 0 -45 37q0 61 31 78q10 4 28 4h164v2q12 74 19.5 112t24 100t35.5 95t52 74t75 61.5 t103.5 36t137.5 15.5q272 0 272 -123q0 -49 -30.5 -78t-67.5 -29q-66 0 -66 64q0 18 6 37q-45 8 -135 8q-156 0 -184 -25q-18 -14 -31.5 -38.5t-23 -62.5t-16.5 -71t-16 -88t-18 -90h533q4 16 11 59t10 58l11 47q7 33 12 46t13 38.5t16.5 40l20.5 34t27 35.5 q111 137 383 138h47q285 0 284 -131q0 -51 -29.5 -82t-68.5 -31q-29 0 -47 17.5t-18 45.5q0 4 10 45q-59 14 -180 15h-33q-125 0 -166 -6.5t-61 -26.5q-49 -49 -95 -293q-6 -31 -10 -49h563q43 0 43 -23q0 -4 -8 -41l-156 -616q-10 -51 -10 -65q0 -41 22.5 -61.5t45.5 -20.5 q35 0 59.5 46t38.5 100t19 60q10 12 41 13h26q45 0 45 -25q0 -41 -51 -151q-78 -164 -199 -164q-80 0 -133 51t-53 137q0 39 25 131l127 510h-467v-2q-82 -485 -146 -758q-25 -102 -50.5 -170.5t-42.5 -95t-44 -59.5q-127 -143 -281 -144q-39 0 -74.5 5.5t-74.5 17.5 t-62.5 38.5t-23.5 65.5q0 43 28.5 74t69.5 31q29 0 47.5 -18.5t18.5 -45.5q0 -14 -9 -43q33 -4 84 -4q88 0 158 58q41 35 67.5 101.5t67.5 264.5l67 355q54 292 62 329h-532q-137 -735 -166 -848q-47 -186 -113 -274q-80 -106 -180 -107q-66 0 -127 29.5t-61 95.5z" />
<glyph unicode="&#xfb04;" horiz-adv-x="1957" d="M-55 -285q0 41 28.5 74t69.5 33q29 0 47.5 -18.5t18.5 -45.5q0 -20 -11 -45q18 -2 43 -2q39 0 64.5 26.5t54.5 119.5q16 55 29.5 111.5t31.5 146.5l31 165l46 240l57 299h-156q-45 0 -45 35q0 63 31 80q10 4 28 4h164v2q29 182 55.5 257t67.5 120q100 117 293 117 q246 0 246 -125q0 -45 -32 -75t-67 -30q-66 0 -65 62q0 23 8 41q-39 6 -117 6h-61q-23 0 -47.5 -6.5t-34.5 -10.5t-24.5 -22.5t-18.5 -30.5t-14.5 -49t-14.5 -63.5t-15 -86t-22 -106.5h533q39 209 63 268q74 188 283 219q49 8 106 9q160 0 218.5 -33t60.5 -101 q20 88 29.5 104.5t40.5 16.5h41q51 0 51 -20q0 -4 -3 -16.5t-3 -18.5l-273 -1083q-16 -76 -16 -88q0 -43 22.5 -63.5t42.5 -20.5q37 0 61.5 46t38 101t19.5 61q10 10 39 11h25q49 6 49 -25q0 -20 -26.5 -92t-59.5 -123q-70 -102 -166 -102q-76 0 -130 53t-54 137q0 39 14 86 l137 555h-495v-2q-84 -500 -148 -760q-25 -102 -50.5 -170.5t-42.5 -95.5t-46 -59q-125 -141 -277 -142q-39 0 -74.5 5.5t-74.5 17.5t-62.5 38.5t-23.5 65.5q0 43 28.5 74t69.5 31q29 0 47.5 -18.5t18.5 -45.5q0 -14 -9 -43q66 -4 84 -4q92 0 156 58q41 35 67.5 102.5 t69.5 263.5q14 68 68.5 358.5t60.5 325.5h-532l-43 -230l-37 -201l-31 -162q-18 -95 -28 -140l-25 -109q-14 -63 -25.5 -95t-27 -70.5t-29.5 -64.5t-33 -50q-80 -106 -180 -107q-66 0 -127 29.5t-61 95.5zM1284 938h504l80 322q-37 -55 -88 -56q-66 0 -66 62q0 20 6 39 q-47 8 -141 8q-166 0 -202 -37t-77 -250z" />
</font>
</defs>
</svg>
